Ссылка на приватное зеркало нашего сайта всего за 1$. Внимание количество ограничено!!!

2 сезон

iTunes

1 сезон

1

2 сезон

2 сезон

iTunes

1 сезон

RePack

30

Ultimate

ВАЖНО

ИГРА 18+

pack

RePack

MK11
pack

Забери бонус

RePack

jed

!!Акция!!

Alien_Rage

RePack

fifa19

RePack

Assassins Creed: Odyssey

RePack

NEED FOR SPEED™ PAYBACK

4 сезон

9 сезон

Бесстыжие 9 сезон

Все сериалы

все сериалы на PB.wtf

RePack

FAR CRY 5
  

Рядовые / Privates / Сезон: 1 / Серии: 1-5 из 5 (Брин Хиггинс) [2013 г., Драма, HDTVRip] MVO ViruseProject pb.wtf

Рядовые через торрент pb.wtf

Размер: 2.44 GB | Добавлен: 7 лет назад | Торрент скачан:24 раза
Скачать  

08-11-2013 09:49 Рядовые Скачать торрент  

Рядовые / Privates
Год выпуска: 2013
Страна: Великобритания, Twenty Twenty Television
Жанр: Драма
Продолжительность: 5 х ~ 00:43:30
Перевод: Любительский многоголосый ViruseProject

Режиссер: Брин Хиггинс
Продюссер: Ник Питт, Доминик Барлоу, Тим Картер
Сценарий: Дэмиэн Уэйлинг

Премьера в мире: 7 января 2013

http://www.kinopoisk.ru/film/728044/votes/

В ролях: Саша Фрост, Майкл Нардон, Александр Влахос, Росс Андерсон, Мэттью Обри, Джек Фокс, Дэвид Киркбрайд, Конор МакНил, Билли Сеймур,

Описание: Действие сериала происходит в 60е в Англии. Восемь молодых парней не по своей воле отбывают службу в Бликли Марш, военном лагере. У каждого из них своя история. Армия кардинально меняет их взгляды на жизнь да и саму жизнь, они переживут унижение со строны старших по званию, отчаяние из-за невозможности сбежать из этого ада, любовь..Они поймут, что значит стать настоящими мужчинами. Но тольки ли у рядовых могут быть прблемы? Старшее окружение и само погрязло в таковых.

Качество: HDTVRip
Формат: AVI
Видео кодек: XviD
Аудио кодек: MP3
Видео: XviD, 720x400 (16:9), ~ 1470 Кбит/с, 25.00fps
Аудио#1: MP3 , 48 kHz, 2ch, 128kbps






General
Complete name : E:�7 11 2013Privates.S01.ViruseProjectPrivates.S01E01.ViruseProject.avi
Format : AVI
Format/Info : Audio Video Interleave
File size : 500 MiB
Duration : 43mn 28s
Overall bit rate : 1 609 Kbps

Video
ID : 0
Format : MPEG-4 Visual
Format profile : Advanced Simple@L5
Format settings, BVOP : 1
Format settings, QPel : No
Format settings, GMC : No warppoints
Format settings, Matrix : Default (MPEG)
Codec ID : XVID
Codec ID/Hint : XviD
Duration : 43mn 28s
Bit rate : 1 471 Kbps
Width : 720 pixels
Height : 400 pixels
Display aspect ratio : 16:9
Frame rate : 25.000 fps
Color space : YUV
Chroma subsampling : 4:2:0
Bit depth : 8 bits
Scan type : Progressive
Compression mode : Lossy
Bits/(Pixel*Frame) : 0.204
Stream size : 458 MiB (91%)
Writing library : XviD 1.2.1 (UTC 2008-12-04)

Audio
ID : 1
Format : MPEG Audio
Format version : Version 1
Format profile : Layer 3
Codec ID : 55
Codec ID/Hint : MP3
Duration : 43mn 28s
Bit rate mode : Constant
Bit rate : 128 Kbps
Channel(s) : 2 channels
Sampling rate : 48.0 KHz
Compression mode : Lossy
Stream size : 39.8 MiB (8%)
Alignment : Aligned on interleaves
Interleave, duration : 40 ms (1.00 video frame)
Writing library : LAME3.98r
Encoding settings : -m s -V 4 -q 2 -lowpass 17 -b 128


Рядовые скачать торрент


pb.wtf



Скачать Рядовые через торрент http://pic.kartinco.top/images/6/mpm2c.jpg Скачать фильм Рядовые через торрент бесплантно в хорошем качестве Описание: Действие сериала происходит в 60е в Англии. Восемь молодых парней не по своей воле отбывают службу в Бликли Марш, военном лагере. ... 10 10 4
Info! Золотая раздача, скачанное не засчитывается.
Торрент: Зарегистрирован [2013-11-08 12:42] · скачан: 24 раз
Статус: √ проверено
Размер: 2.44 GB
Как cкачать? Как скачать Рядовые через торрент | qTorrent



Последний раз редактировалось: lug30 (2013-11-08 13:12), всего редактировалось 19 раз(а)

28-11-2019 20:33  

Отключить всю рекламу на сайте

08-11-2013 09:55 Рядовые Скачать торрент  

спасибо,заценимpb.wtf



08-11-2013 10:02 Рядовые Скачать торрент  

Перевод: Любительский многоголосый ??? сэмпл сделайтеpb.wtf



08-11-2013 10:08 Рядовые Скачать торрент  

killermax2013 писал(а):

Перевод: Любительский многоголосый ??? сэмпл сделайте

хорошо,сейчас попробуюpb.wtf



08-11-2013 11:17 Рядовые Скачать торрент  

Код:

Перевод: Любительский многоголосый

Укажите чей. Так же это нужно сделать в заголовке.

Приведите заголовок в соответствие с правилами.

Код:

Название на русском / Название на оригинале /сезон / Кол-во серий (режиссер) [год, жанр, качество] перевод

В характеристики видео добавьте частоту кадров (fps).

Проверьте чтобы длина сэмпла была от 1 до 3 минут в этот промежуток должен попасть диалог, если это не так - исправьте.

Об исправлении сообщите в лс со ссылкой на раздачу.
pb.wtf



    Дорогой пользователь! Огромная просьба, поблагодарите релизера, оцените раздачу и оставьте свои комментарий, если Вы скачали Рядовые через торрент бесплатно! Внесите свою лепту в развитие PiratBit!
    Комментировать посты могут только пользователи прошедшие не сложную регистрацию
    Показать сообщения:    

    Рядовые через торрент
    Скачать бесплатно Рядовые
    Рядовые скачать торрент
    Рядовые смотреть онлайн
    Cкачать фильм Рядовые бесплатно
    Рядовые скачать торрент в хорошем качестве
    Рядовые смотреть онлайн бесплатно в хорошем качестве


    Вы не можете начинать темы
    Вы не можете отвечать на сообщения
    Вы не можете редактировать свои сообщения
    Вы не можете удалять свои сообщения
    Вы не можете голосовать в опросах
    Вы не можете прикреплять файлы к сообщениям
    Вы можете скачивать файлы