1 сезон

1 сезон

iTunes

1

КиноПоиск HD

Кинопоиск HD

iTunes

13

1 сезон

RePack

30

Новинка

ВАЖНО

ИГРА 18+

pack

RePack

MK11
pack

Легкие деньги

RePack

jed

RePack

fifa19

RePack

RDR2

RePack

NEED FOR SPEED™ PAYBACK

4 сезон

9 сезон

Бесстыжие 9 сезон

Все сериалы

все сериалы на PB.wtf

RePack

FAR CRY 5
  
Magnet ссылка

Открытый простор / Open Range (Кевин Костнер) [2003 г., боевик, мелодрама, вестерн, DVDRip, Дубляж] pb.wtf

Открытый простор через торрент pb.wtf

Размер: 2.19 GB | Добавлен: 7 лет 5 мес. назад | Торрент скачан:87 раз
Скачать  

08-11-2013 10:21 Открытый простор Скачать торрент  

Открытый простор / Open Range
Год выпуска: 2003
Страна: США
Жанр: боевик, мелодрама, вестерн,
Продолжительность: 02:12:58
Перевод: Дубляж

Режиссер: Кевин Костнер
Продюссер: Кевин Костнер, Джэйк Эбертс, Дэвид Валдес
Сценарий: Крэйг Сторпер, Лоран Пэйн

Бюджет: $22 000 000
Премьера в мире: 11 августа 2003

рейтинг R лицам до 17 лет обязательно присутствие взрослого



В ролях: Роберт Дюваль, Кевин Костнер, Аннетт Бенинг, Майкл Гэмбон, Майкл Джетер, Диего Луна, Джеймс Руссо, Абрахам Бенруби, Дин МакДермотт, Ким Коутс,

Описание: Лишь на бескрайних просторах Америки Чарли Уэйт и Босс Спирмэн чувствуют воздух свободы. Смутное прошлое заставляет их оставаться в седле, сторонясь городов и людей. Но что-то меняется в душе одиночки Уэйта, когда он встречает Сью Барлоу там, где кое-кто взялся вершить свой закон. И когда напарники оказались связаны местью, то были уверены только в одном: что не станут бежать от опасности никогда!

Качество: DVDRip
Формат: AVI
Видео кодек: XviD
Аудио кодек: AC3
Видео: 720x304 (2.37:1), 25 fps, XviD build 50 ~1579 kbps avg, 0.29 bit/pixel
Аудио#1: Russian: 48 kHz, AC3 Dolby Digital, 3/2 (L,C,R,l,r) + LFE ch, ~384 kbps
Аудио#2: English: 48 kHz, AC3 Dolby Digital, 3/2 (L,C,R,l,r) + LFE ch, ~384 kbps

Общее
Полное имя : F:ЗакачкиOtkrytyy'.Prostor.2003.DVDRip.avi
Формат : AVI
Формат/Информация : Audio Video Interleave
Профиль формата : OpenDML
Размер файла : 2,19 Гбайт
Продолжительность : 2 ч. 12 м.
Общий поток : 2354 Кбит/сек
Программа кодирования : VirtualDubModRus 1.5.10.2 (build 2542/release)
Библиотека кодирования : VirtualDubMod build 2542/release

Видео
Идентификатор : 0
Формат : MPEG-4 Visual
Профиль формата : Advanced Simple@L5
Параметр BVOP формата : 1
Параметр QPel формата : Нет
Параметр GMC формата : Без точки перехода
Параметр матрицы формата : Default (H.263)
Идентификатор кодека : XVID
Идентификатор кодека/Подсказка : XviD
Продолжительность : 2 ч. 12 м.
Битрейт : 1568 Кбит/сек
Ширина : 720 пикселей
Высота : 304 пикселя
Соотношение сторон : 2,35:1
Частота кадров : 25,000 кадров/сек
Цветовое пространство : YUV
Субдискретизация насыщенности : 4:2:0
Битовая глубина : 8 бит
Тип развёртки : Прогрессивная
Метод сжатия : С потерями
Бит/(Пиксели*Кадры) : 0.286
Размер потока : 1,46 Гбайт (67%)
Библиотека кодирования : XviD 1.2.1 (UTC 2008-12-04)

Аудио #1
Идентификатор : 1
Формат : AC-3
Формат/Информация : Audio Coding 3
Расширение режима : CM (complete main)
Параметр Endianness формата : Big
Идентификатор кодека : 2000
Продолжительность : 2 ч. 12 м.
Вид битрейта : Постоянный
Битрейт : 384 Кбит/сек
Каналы : 6 каналов
Расположение каналов : Front: L C R, Side: L R, LFE
Частота : 48,0 КГц
Битовая глубина : 16 бит
Метод сжатия : С потерями
Размер потока : 365 Мбайт (16%)
Выравнивание : Разделение по промежуткам
Продолжительность промежутка : 40 мс. (1,00 видеокадр)
Время предзагрузки промежутка : 500 мс.

Аудио #2
Идентификатор : 2
Формат : AC-3
Формат/Информация : Audio Coding 3
Расширение режима : CM (complete main)
Параметр Endianness формата : Big
Идентификатор кодека : 2000
Продолжительность : 2 ч. 12 м.
Вид битрейта : Постоянный
Битрейт : 384 Кбит/сек
Каналы : 6 каналов
Расположение каналов : Front: L C R, Side: L R, LFE
Частота : 48,0 КГц
Битовая глубина : 16 бит
Метод сжатия : С потерями
Размер потока : 365 Мбайт (16%)
Выравнивание : Разделение по промежуткам
Продолжительность промежутка : 40 мс. (1,00 видеокадр)
Время предзагрузки промежутка : 500 мс.


Открытый простор скачать торрент


pb.wtf



Скачать Открытый простор через торрент http://s7.uploads.ru/Z8JWF.jpg Скачать фильм Открытый простор через торрент бесплантно в хорошем качестве Описание: Лишь на бескрайних просторах Америки Чарли Уэйт и Босс Спирмэн чувствуют воздух свободы. Смутное прошлое заставляет их оставаться ... 10 10 5
Info! Золотая раздача, скачанное не засчитывается.
Торрент: Зарегистрирован [2013-11-08 10:21] · скачан: 87 раз
Статус: √ проверено
Размер: 2.19 GB
Как cкачать? Как скачать Открытый простор через торрент | UTorrent

% Раздел Тема Автор DL S | L
Фильмы [HD 720p, 1080p] (Хороший звук DUB, MVO) [ 15.22 GB ] Открытый простор / Open Range [2003 BDRip 1080p by msltel] DUB 3 x MVO msltel Скачать
1 | 0
Фильмы [HD 720p, 1080p] (Хороший звук DUB, MVO) [ 6.84 GB ] Открытый простор / Open Range [2003 BDRip 720p by msltel] DUB 3 x MVO msltel Скачать
1 | 0
Фильмы 2001-2005 [ 2.18 GB ] Открытый простор / Open Range [2003 BDRip] rulya74 Скачать
1 | 0
Фильмы 2001-2005 [ 2.91 GB ] Открытый простор / Open Range [2003 лицензия] кэп Скачать
1 | 0

28-11-2019 20:33  

Отключить всю рекламу на сайте

19-08-2014 18:35 Открытый простор Скачать торрент  

Спасибо.pb.wtf



    Дорогой пользователь! Огромная просьба, поблагодарите релизера, оцените раздачу и оставьте свои комментарий, если Вы скачали Открытый простор через торрент бесплатно! Внесите свою лепту в развитие PiratBit!
    Комментировать посты могут только пользователи прошедшие не сложную регистрацию
    Показать сообщения:    

    Открытый простор через торрент
    Скачать бесплатно Открытый простор
    Открытый простор скачать торрент
    Открытый простор смотреть онлайн
    Cкачать фильм Открытый простор бесплатно
    Открытый простор скачать торрент в хорошем качестве
    Открытый простор смотреть онлайн бесплатно в хорошем качестве


    Вы не можете начинать темы
    Вы не можете отвечать на сообщения
    Вы не можете редактировать свои сообщения
    Вы не можете удалять свои сообщения
    Вы не можете голосовать в опросах
    Вы не можете прикреплять файлы к сообщениям
    Вы можете скачивать файлы