Ссылка на приватное зеркало нашего сайта всего за 1$. Внимание количество ограничено!!!

2 сезон

iTunes

1 сезон

1

iTunes

iTunes

iTunes

1 сезон

RePack

30

ИГРА 18+

pack

ВАЖНО

!!Акция!!

Alien_RageХит недели

RePack

MK11
pack

Забери бонус

RePack

jed

!!Акция!!

Alien_Rage

RePack

fifa19

RePack

Assassins Creed: Odyssey

RePack

NEED FOR SPEED™ PAYBACK

4 сезон

9 сезон

Бесстыжие 9 сезон

Все сериалы

все сериалы на PB.wtf

RePack

FAR CRY 5
  

Кукловоды /4 серии из 4/ (Марина Исаева) [2013 г., Психологический триллер, SATRip] pb.wtf

Кукловоды через торрент pb.wtf

Размер: 2.27 GB | Добавлен: 6 лет 11 мес. назад | Торрент скачан:395 раз
Скачать  

09-11-2013 14:47 Кукловоды Скачать торрент  

Кукловоды

Год выпуска: 2013
Страна: Россия
Выпущено: Студия "Форте-Медиа"
Жанр: Психологический триллер
Продолжительность: 4 х ~ 00:50:00
Перевод: Оригинал

Режиссер: Марина Исаева

В ролях: Регина Мянник, Светлана Устинова, Максим Щеголев, Вероника Вернадская, Андрей Лукьянов, Евгений Редько, Игорь Самойлов, Семен Трескунов, Александра Урсуляк, Константин Юшкевич, Инна Гомес,

Описание: Кто-то играет сам, а кем-то играют другие. Так было всегда, и невозможно измерить и разрушить сложившиеся стереотипы. К сожалению, люди могут даже не замечать, что являются марионетками в чьих-то могущественных и властных руках

Качество: SATRip
Формат: AVI
Видео кодек: XviD
Аудио кодек: MP3
Видео: MPEG4, XviD, 720x416 (16:9), 25.000 fps, 1 495 Kbps (0.200 bit/pixel)
Аудио: MP3 , 48.0 KHz, 2 ch, 128 Kbps, CBR
Формат : AVI
Формат/Информация : Audio Video Interleave
Размер файла : 598 Мбайт
Продолжительность : 51 м.
Общий поток : 1633 Кбит/сек
Программа кодирования : VirtualDubMod 1.5.10.2 (build 2540/release)
Библиотека кодирования : VirtualDub build 32507/release

Видео
Идентификатор : 0
Формат : MPEG-4 Visual
Профиль формата : Advanced Simple@L5
Параметр BVOP формата : 2
Параметр QPel формата : Нет
Параметр GMC формата : Без точки перехода
Параметр матрицы формата : Default (MPEG)
Идентификатор кодека : XVID
Идентификатор кодека/Подсказка : XviD
Продолжительность : 51 м.
Битрейт : 1495 Кбит/сек
Ширина : 720 пикселей
Высота : 416 пикселей
Соотношение сторон : 1,731
Частота кадров : 25,000 кадров/сек
Цветовое пространство : YUV
Субдискретизация насыщенности : 4:2:0
Битовая глубина : 8 бит
Тип развёртки : Прогрессивная
Метод сжатия : С потерями
Бит/(Пиксели*Кадры) : 0.200
Размер потока : 548 Мбайт (92%)
Библиотека кодирования : XviD 64

Аудио
Идентификатор : 1
Формат : MPEG Audio
Версия формата : Version 1
Профиль формата : Layer 3
Режим : Joint stereo
Идентификатор кодека : 55
Идентификатор кодека/Подсказка : MP3
Продолжительность : 51 м.
Вид битрейта : Постоянный
Битрейт : 128 Кбит/сек
Каналы : 2 канала
Частота : 48,0 КГц
Метод сжатия : С потерями
Размер потока : 46,9 Мбайт (8%)
Выравнивание : Соединение по промежуткам
Продолжительность промежутка : 40 мс. (1,00 видеокадр)
Время предзагрузки промежутка : 504 мс.
pb.wtf



Скачать Кукловоды через торрент http://i3.imageban.ru/out/2013/11/09/88f9d4362511632e7b0fa45973ace6eb.png Скачать фильм Кукловоды через торрент бесплантно в хорошем качестве Описание: Кто-то играет сам, а кем-то играют другие. Так было всегда, и невозможно измерить и разрушить сложившиеся стереоы. К ... 9.7 10 15
Info! Золотая раздача, скачанное не засчитывается.
Торрент: Зарегистрирован [2013-11-09 14:47] · скачан: 395 раз
Статус: √ проверено
Размер: 2.27 GB
Как cкачать? Как скачать Кукловоды через торрент | qTorrent

28-11-2019 20:33  

Отключить всю рекламу на сайте

    Дорогой пользователь! Огромная просьба, поблагодарите релизера, оцените раздачу и оставьте свои комментарий, если Вы скачали Кукловоды через торрент бесплатно! Внесите свою лепту в развитие PiratBit!
    Комментировать посты могут только пользователи прошедшие не сложную регистрацию
    Показать сообщения:    

    Кукловоды через торрент
    Скачать бесплатно Кукловоды
    Кукловоды скачать торрент
    Кукловоды смотреть онлайн
    Cкачать фильм Кукловоды бесплатно
    Кукловоды скачать торрент в хорошем качестве
    Кукловоды смотреть онлайн бесплатно в хорошем качестве


    Вы не можете начинать темы
    Вы не можете отвечать на сообщения
    Вы не можете редактировать свои сообщения
    Вы не можете удалять свои сообщения
    Вы не можете голосовать в опросах
    Вы не можете прикреплять файлы к сообщениям
    Вы можете скачивать файлы