Ссылка на приватное зеркало нашего сайта всего за 1$. Внимание количество ограничено!!!

2 сезон

iTunes

1 сезон

1

iTunes

iTunes

iTunes

1 сезон

RePack

30

ИГРА 18+

pack

ВАЖНО

!!Акция!!

Alien_RageХит недели

RePack

MK11
pack

Забери бонус

RePack

jed

!!Акция!!

Alien_Rage

RePack

fifa19

RePack

Assassins Creed: Odyssey

RePack

NEED FOR SPEED™ PAYBACK

4 сезон

9 сезон

Бесстыжие 9 сезон

Все сериалы

все сериалы на PB.wtf

RePack

FAR CRY 5
  

Берега моей мечты /1-12 серия из 12 (Станислав Дремов) [2013 , Россия , Приключения, мелодрама , SATRip , Original] pb.wtf

Берега моей мечты через торрент pb.wtf

Размер: 6.45 GB | Добавлен: 6 лет 11 мес. назад | Торрент скачан:472 раза
Скачать  

10-11-2013 07:15 Берега моей мечты Скачать торрент  

Берега моей мечты


Год выпуска: 2013
Страна: Россия
Жанр: Приключения, мелодрама
Продолжительность: 00:43:38
Перевод: Оригинальный


Режиссер: Станислав Дремов
В ролях: Анатолий Руденко (Алексей), Глафира Тарханова (Лена), Василий Лановой (Бессонов), Екатерина Васильева (Мария Ильинична Крылова), Ирина Розанова (Нина Крылова), Михаил Тарабукин, Анатолий Котенёв (Крылов), Кузьма Стомаченко (Егор Пряхин), Елена Дудина (Светлана), Александр Пашков (Васильев), Максим Тихонов (лейтенант), Анна Арефьева

Описание: Во время учений Черноморского флота Алексей Крылов, молодой офицер, вступает в конфликт с командиром корабля. Несмотря на то, что Алексей спасает корабль от катастрофы, его понижают в звании и снимают с должности. Благодаря тому, что в эту историю негласно вмешался его отец, Адмирал Крылов, этим наказание для Алексея исчерпывается, его переводят на Балтийский флот. Его друзья еще со времен училища, Сергей Апраксин и Виктор Храпов, не могут отпустить своего товарища одного - они переводятся на Балтику вслед за ним...

Рейтинг
kinopoisk.ru: 6.500 (44)

  • Качество: SATRip
  • Формат: AVI
  • Видео кодек: XviD
  • Аудио кодек: MP3
  • Видео: XviD, 720x400 (16:9), 1560 kbps, 25 fps, 0,217 bpp
  • Аудио: MP3 / 2.0 / 48 kHz / 192 kbps /
    Format : AVI
    Format/Info : Audio Video Interleave
    File size : 550 MiB
    Duration : 43mn 38s
    Overall bit rate : 1 762 Kbps
    Writing application : VirtualDubMod 1.5.10.3 | www.virtualdub-fr.org || (build 2550/release)
    Writing library : VirtualDubMod build 2550/release

    Video
    ID : 0
    Format : MPEG-4 Visual
    Format profile : Advanced Simple@L5
    Format settings, BVOP : 2
    Format settings, QPel : No
    Format settings, GMC : No warppoints
    Format settings, Matrix : Default (MPEG)
    Codec ID : XVID
    Codec ID/Hint : XviD
    Duration : 43mn 38s
    Bit rate : 1 560 Kbps
    Width : 720 pixels
    Height : 400 pixels
    Display aspect ratio : 16:9
    Frame rate : 25.000 fps
    Color space : YUV
    Chroma subsampling : 4:2:0
    Bit depth : 8 bits
    Scan type : Progressive
    Compression mode : Lossy
    Bits/(Pixel*Frame) : 0.217
    Stream size : 487 MiB (89%)
    Writing library : XviD 1.2.1 (UTC 2008-12-04)

    Audio
    ID : 1
    Format : MPEG Audio
    Format version : Version 1
    Format profile : Layer 3
    Codec ID : 55
    Codec ID/Hint : MP3
    Duration : 43mn 38s
    Bit rate mode : Constant
    Bit rate : 192 Kbps
    Channel(s) : 2 channels
    Sampling rate : 48.0 KHz
    Compression mode : Lossy
    Stream size : 59.9 MiB (11%)
    Alignment : Aligned on interleaves
    Interleave, duration : 40 ms (1.00 video frame)
    Interleave, preload duration : 504 ms
    Writing library : LAME3.99r
    Encoding settings : -m s -V 4 -q 2 -lowpass 18.6 -b 192
    pb.wtf



  • Скачать Берега моей мечты через торрент http://i3.imageban.ru/out/2013/11/10/61a20d779c324e419db07a4b6259be74.png Скачать фильм Берега моей мечты через торрент бесплантно в хорошем качестве Описание: Во время учений Черноморского флота Алексей Крылов, молодой офицер, вступает в конфликт с командиром корабля. Несмотря на то, что ... 9.7 10 21
    Info! Золотая раздача, скачанное не засчитывается.
    Торрент: Зарегистрирован [2013-11-10 07:15] · скачан: 472 раз
    Статус: √ проверено
    Размер: 6.45 GB
    Как cкачать? Как скачать Берега моей мечты через торрент | qTorrent

    28-11-2019 20:33  

    Отключить всю рекламу на сайте

      Дорогой пользователь! Огромная просьба, поблагодарите релизера, оцените раздачу и оставьте свои комментарий, если Вы скачали Берега моей мечты через торрент бесплатно! Внесите свою лепту в развитие PiratBit!
      Комментировать посты могут только пользователи прошедшие не сложную регистрацию
      Показать сообщения:    

      Берега моей мечты через торрент
      Скачать бесплатно Берега моей мечты
      Берега моей мечты скачать торрент
      Берега моей мечты смотреть онлайн
      Cкачать фильм Берега моей мечты бесплатно
      Берега моей мечты скачать торрент в хорошем качестве
      Берега моей мечты смотреть онлайн бесплатно в хорошем качестве


      Вы не можете начинать темы
      Вы не можете отвечать на сообщения
      Вы не можете редактировать свои сообщения
      Вы не можете удалять свои сообщения
      Вы не можете голосовать в опросах
      Вы не можете прикреплять файлы к сообщениям
      Вы можете скачивать файлы