2 сезон

iTunes

MVO

1

2 сезон

iTunes

iTunes

1 сезон

RePack

30

Новинка

ВАЖНО

ИГРА 18+

pack

RePack

MK11
pack

Легкие деньги

RePack

jed

RePack

fifa19

RePack

RDR2

RePack

NEED FOR SPEED™ PAYBACK

4 сезон

9 сезон

Бесстыжие 9 сезон

Все сериалы

все сериалы на PB.wtf

RePack

FAR CRY 5

Anonymous, доброе утро, мы не успеваем собрать деньги на оплату серверов за декабрь и январь, помогите нам пожалуйста в это трудное время. В качестве благодарности мы отключим Вам всю рекламу на сайте (укажите свой ник в строку Ваше имя)!

×
  
Magnet ссылка

Влюбленный скорпион / Alacran enamorado (Сантьяго Санноу) [2013, триллер, драма, мелодрама, HDRip,Дубляж] pb.wtf

Влюбленный скорпион через торрент pb.wtf

Размер: 1.37 GB | Добавлен: 7 лет 2 мес. назад | Торрент скачан:508 раз
Скачать  

10-11-2013 07:29 Влюбленный скорпион Скачать торрент  


Влюбленный скорпион / Alacran enamorado



Год выпуска: 2013
Страна: Испания
Жанр: триллер, драма, мелодрама
Продолжительность: 01:37:07
Перевод: Профессиональный (дублированный) [лицензия]

Режиссер: Сантьяго Санноу
Сценарий: Сантьяго Санноу, Карлос Бардем
Продюсер: Альваро Лонгария

В ролях: Алекс Гонсалес / Alex Gonzalez (JuliГЎn), Джудит Диакате / Judith Diakhate (Alyssa), Карлос Бардем / Carlos Bardem (Carlomonte), Мигель Анхель Сильвестре / Miguel Angel Silvestre (Luis), Хавьер Бардем / Javier Bardem (SolГ­s), Элио Сагуэс / Elio Sagues (Felipe «El Loco»), Хавьер Мансебо / Javier Mancebo (Asterix), Досель Камана Гомбе / Dosel Kamana Gombe (Franky)


Описание: Хулиан, член неонацистской группировки, цель которой — зачистка улиц от «черных» и арабов, начинает тренироваться у Карломонте, в прошлом прославленного боксера, а ныне — пьяницы, разрушившего свою жизнь. Но рядом с этим человеком, жестким и упрямым, Хулиан постепенно начинает меняться. Он отдаляется от бывших дружков, влюбляется в Алису, девушку, работающую в спортзале, у него появляется новый приятель — его чернокожий спарринг-партнер Фрэнки. Новая жизнь ему нравится больше, чем прежняя. Но главарь неонацистов Луис считает, что Хулиан предатель, а это значит, что он должен понести жестокое наказание…

СЭМПЛ



Качество: HDRip
Формат: AVI
Видео кодек: XviD
Аудио кодек: AC3
Видео: 720x304 (2.35:1), 23.976 fps, XviD, 1 622 Kbps
Аудио: Аудио #1: AC3, 384 Kbps, 48.0 KHz, 6 ch

Код:

General
Complete name                    : Vlublennyj.scorpion.2013.D.HDRip.1400MB.INTERCINEMA.avi
Format                           : AVI
Format/Info                      : Audio Video Interleave
File size                        : 1.37 GiB
Duration                         : 1h 37mn
Overall bit rate                 : 2 015 Kbps
Movie name                       : Vlublennyj.scorpion.2013.D.HDRip.1400MB.INTERCINEMA
Director                         : INTERCINEMA
Genre                            : Thriller/Drama/Romance
Writing application              : VirtualDubMod 1.5.10.2 (build 2540/release)
Original source form/Name        : Movie
Copyright                        : http://intercinema.net

Video
ID                               : 0
Format                           : MPEG-4 Visual
Format profile                   : Advanced Simple@L5
Format settings, BVOP            : Yes
Format settings, QPel            : No
Format settings, GMC             : No warppoints
Format settings, Matrix          : Custom
Codec ID                         : XVID
Codec ID/Hint                    : XviD
Duration                         : 1h 37mn
Bit rate                         : 1 622 Kbps
Width                            : 720 pixels
Height                           : 304 pixels
Display aspect ratio             : 2.35:1
Frame rate                       : 23.976 fps
Color space                      : YUV
Chroma subsampling               : 4:2:0
Bit depth                        : 8 bits
Scan type                        : Progressive
Bits/(Pixel*Frame)               : 0.309
Stream size                      : 1.10 GiB (80%)
Writing library                  : XviD 1.2.1 (UTC 2008-12-04)

Audio
ID                               : 1
Format                           : AC-3
Format/Info                      : Audio Coding 3
Mode extension                   : CM (complete main)
Codec ID                         : 2000
Duration                         : 1h 37mn
Bit rate mode                    : Constant
Bit rate                         : 384 Kbps
Channel(s)                       : 6 channels
Channel positions                : Front: L C R, Side: L R, LFE
Sampling rate                    : 48.0 KHz
Bit depth                        : 16 bits
Stream size                      : 267 MiB (19%)
Alignment                        : Split accross interleaves
Interleave, duration             : 42 ms (1.00 video frame)
Interleave, preload duration     : 500 ms

pb.wtf



Скачать Влюбленный скорпион через торрент http://i58.fastpic.ru/big/2013/1110/16/e676a6d020d399e880b045a384be8016.jpg Скачать фильм Влюбленный скорпион через торрент бесплантно в хорошем качестве Описание: Хулиан, член неонацистской группировки, цель которой — зачистка улиц от «черных» и арабов, начинает тренироваться у Карломонте, в ... 9.7 10 15
Info! Золотая раздача, скачанное не засчитывается.
Торрент: Зарегистрирован [2013-11-10 07:29] · скачан: 508 раз
Статус: √ проверено
Размер: 1.37 GB
Как cкачать? Как скачать Влюбленный скорпион через торрент | UTorrent

28-11-2019 20:33  

Отключить всю рекламу на сайте

    Дорогой пользователь! Огромная просьба, поблагодарите релизера, оцените раздачу и оставьте свои комментарий, если Вы скачали Влюбленный скорпион через торрент бесплатно! Внесите свою лепту в развитие PiratBit!
    Комментировать посты могут только пользователи прошедшие не сложную регистрацию
    Показать сообщения:    

    Влюбленный скорпион через торрент
    Скачать бесплатно Влюбленный скорпион
    Влюбленный скорпион скачать торрент
    Влюбленный скорпион смотреть онлайн
    Cкачать фильм Влюбленный скорпион бесплатно
    Влюбленный скорпион скачать торрент в хорошем качестве
    Влюбленный скорпион смотреть онлайн бесплатно в хорошем качестве


    Вы не можете начинать темы
    Вы не можете отвечать на сообщения
    Вы не можете редактировать свои сообщения
    Вы не можете удалять свои сообщения
    Вы не можете голосовать в опросах
    Вы не можете прикреплять файлы к сообщениям
    Вы можете скачивать файлы