1 сезон

1 сезон

iTunes

1

КиноПоиск HD

Кинопоиск HD

iTunes

13

1 сезон

RePack

30

Ultimate

ВАЖНО

ИГРА 18+

pack

RePack

MK11
pack

Легкие деньги

RePack

jed

RePack

fifa19

RePack

RDR2

RePack

NEED FOR SPEED™ PAYBACK

4 сезон

9 сезон

Бесстыжие 9 сезон

Все сериалы

все сериалы на PB.wtf

RePack

FAR CRY 5
  
Magnet ссылка

Рок-звезда / Rock Star (Стивен Херек) [2001 г., драма, комедия, музыка, DVDRip, Профессиональный двухголосый] pb.wtf

Рок-звезда через торрент pb.wtf

Размер: 698 MB | Добавлен: 7 лет 5 мес. назад | Торрент скачан:58 раз
Скачать  

10-11-2013 09:44 Рок-звезда Скачать торрент  

Рок-звезда / Rock Star
«The story of a wannabe who got to be»

Год выпуска: 2001
Страна: США
Жанр: драма, комедия, музыка
Продолжительность: 1:36:17
Перевод: Профессиональный двухголосый
Тип релиза: Лицензия

Режиссер: Стивен Херек
Продюссер: Тоби Джаффе, Роберт Лоуренс, Джордж Клуни
Сценарий: Джон Стокуэлл

Бюджет: $57 000 000
Премьера в мире: 4 сентября 2001

Рейтинг R - Детям до 17 лет обязательно присутствие родителей

http://www.kinopoisk.ru/film/1956/

В ролях:
*Марк Уолберг
*Дженнифер Энистон
*Доминик Уэст
*Джейсон Флеминг
*Тимоти Сполл
*Тимоти Олифант
*Закк Уайлд
*Джейсон Бонем
*Джефф Пилсон
*Блас Елиас

Описание: Днем Крис Коул занимается починкой копировальной техники. По ночам он — подражает рок-группе «Steel Dragon» самой крутой в мире «тяжелого металла». Неожиданно ему представилась удивительная возможность: стать новым солистом настоящего «Steel Dragon»!

В одночасье он, никому не известный парнишка из маленького городка, становится супер-звездой. В одночасье он, и его менеджер/подружка Эмили погружаются в мир безумства, которое трудно себе представить.

Качество: DVDRip
Формат: AVI
Видео кодек: XviD
Аудио кодек: MPEG Audio
Видео: DivX 3 576x240 24.999fps 872 Kbps
Аудио: MPEG Audio Layer 3 48000Hz stereo 127kbps
скриншот   скриншот   скриншот   скриншот   скриншот   скриншот   скриншот   скриншот  





General
Complete name : D:VideoRockStar.avi
Format : AVI
Format/Info : Audio Video Interleave
File size : 698 MiB
Duration : 1h 36mn
Overall bit rate : 1 013 Kbps
Writing application : Nandub v1.0rc2
Writing library : Nandub build 1852/release

Video
ID : 0
Format : MPEG-4 Visual
Codec ID : DIV3
Codec ID/Hint : DivX 3 Low
Duration : 1h 36mn
Bit rate : 872 Kbps
Width : 576 pixels
Height : 240 pixels
Display aspect ratio : 2.40:1
Frame rate : 25.000 fps
Color space : YUV
Chroma subsampling : 4:2:0
Bit depth : 8 bits
Compression mode : Lossy
Bits/(Pixel*Frame) : 0.252
Stream size : 601 MiB (86%)

Audio
ID : 1
Format : MPEG Audio
Format version : Version 1
Format profile : Layer 3
Mode : Joint stereo
Mode extension : MS Stereo
Codec ID : 55
Codec ID/Hint : MP3
Duration : 1h 36mn
Bit rate mode : Constant
Bit rate : 128 Kbps
Channel(s) : 2 channels
Sampling rate : 48.0 KHz
Compression mode : Lossy
Stream size : 88.2 MiB (13%)
Alignment : Aligned on interleaves
Interleave, duration : 24 ms (0.60 video frame)
Interleave, preload duration : 480 ms

В основу сюжета положена реальная история Тима «Ripper» Оуэнса и группы Judas Priest.
pb.wtf



Скачать Рок-звезда через торрент http://good-zona.ru/onlinekino/rock_star.jpg Скачать фильм Рок-звезда через торрент бесплантно в хорошем качестве Описание: Днем Крис Коул занимается починкой копировальной техники. По ночам он — подражает рок-группе «Steel Dragon» самой крутой в мире ... 10 10 5
Info! Золотая раздача, скачанное не засчитывается.
Торрент: Зарегистрирован [2013-11-10 09:44] · скачан: 58 раз
Статус: √ проверено
Размер: 698 MB
Как cкачать? Как скачать Рок-звезда через торрент | UTorrent

% Раздел Тема Автор DL S | L
T Фильмы (мультфильмы) cо спонсором показа (Новинки AVI/MKV) [ 1.37 GB ] Деревенские рок-звёзды / Village Rockstars [2017 WEB-DLRip] MVO ["Синема УС"] bober100 Скачать
1 | 0
Фильмы 2001-2005 [ 2.05 GB ] Рок-звезда / Rock Star / 2001 / HDRip кэп Скачать
1 | 0

28-11-2019 20:33  

Отключить всю рекламу на сайте

10-11-2013 10:12 Рок-звезда Скачать торрент  

на 4-м скрине рева))))))))))))pb.wtf



10-11-2013 11:23 Рок-звезда Скачать торрент  

Не знаю,почему рейтинг фильма такой маленький,но фильм просто БОМБА!pb.wtf



10-11-2013 11:34 Рок-звезда Скачать торрент  

Ballah писал(а):

Не знаю,почему рейтинг фильма такой маленький,но фильм просто БОМБА!

согласен с Вами!pb.wtf



    Дорогой пользователь! Огромная просьба, поблагодарите релизера, оцените раздачу и оставьте свои комментарий, если Вы скачали Рок-звезда через торрент бесплатно! Внесите свою лепту в развитие PiratBit!
    Комментировать посты могут только пользователи прошедшие не сложную регистрацию
    Показать сообщения:    

    Рок-звезда через торрент
    Скачать бесплатно Рок-звезда
    Рок-звезда скачать торрент
    Рок-звезда смотреть онлайн
    Cкачать фильм Рок-звезда бесплатно
    Рок-звезда скачать торрент в хорошем качестве
    Рок-звезда смотреть онлайн бесплатно в хорошем качестве


    Вы не можете начинать темы
    Вы не можете отвечать на сообщения
    Вы не можете редактировать свои сообщения
    Вы не можете удалять свои сообщения
    Вы не можете голосовать в опросах
    Вы не можете прикреплять файлы к сообщениям
    Вы можете скачивать файлы