>

7.4

iTunes

7.4

2 сезон

9.4

1 сезон

1

7.4

2 сезон

7.2

iTunes

6.0

MVO

13

6.1

iTunes

8.3

Пиратка

30

ULTIMATE

pack

9.9

Лицензия

ВАЖНО

ИГРА 18+

pack

7.3

RePack

MK11

7.7

RePack

jed

7.8

RePack

fifa19

8.5

RePack

RDR2

RePack

NEED FOR SPEED™ PAYBACK

1 сезон

9 сезон

Бесстыжие 9 сезон

Все сериалы

все сериалы на PB.wtf

RePack

FAR CRY 5

Anonymous, доброй ночи, мы катастрофически не успеваем собрать деньги на оплату серверов, помогите нам пожалуйста 5,10,15р., для нас важна любая помощь . В качестве благодарности мы отключим Вам всю рекламу на сайте (укажите свой ник в строку Ваше имя)!

×
  
Magnet ссылка

Лига выдающихся джентльменов / The League of Extraordinary Gentlemen (Стивен Норрингтон) [2003, фантастика, фэнтези, боевик, BDRip] 2x[AVO] (А.Гаврилов, Ю.Живов) pb.wtf

Лига выдающихся джентльменов через торрент pb.wtf

Размер: 2.2 GB | Добавлен: 8 лет 2 мес. назад | Торрент скачан:104 раза
Смотреть онлайн Лига выдающихся джентльменов | Скачать    Ребята, помогите собрать деньги на оплату серверов!!!

10-11-2013 13:52 Лига выдающихся джентльменов Скачать торрент  

Лига выдающихся джентльменов / The League of Extraordinary Gentlemen
Год выпуска: 2003
Страна: США, Германия, Великобритания, Чехия
Жанр: фантастика, фэнтези, боевик
Продолжительность: 01:50:06
Перевод #1: Авторский (одноголосный)[А.Гаврилов]
Перевод #2: Авторский (одноголосный)[Ю.Живов]
Оригинальный аудиопоток: английский
Субтитры: нет

Режиссер: Стивен Норрингтон

В ролях: Шон Коннери, Насреддин Шах, Пета Уилсон, Тони Каррен, Стюарт Таунсенд, Шэйн Уэст, Джейсон Флеминг, Ричард Роксбур, Макс Райан, Том Гудман-Хилл, Дэвид Хеммингз, Терри О`Нейлл, Рудольф Пеллар, Роберт Уиллокс, Роберт Орр

Описание: Викторианская Англия. Лига выдающихся джентльменов это отряд супергероев под предводительством бесстрашного искателя приключений Алана Куотермейна. Под его началом оказались такие выдающиеся личности, как Капитан Немо, вампирша Мина Харкер, человек-невидимка Родни Скиннер, агент секретных служб США Том Сойер, Дориан Грей и доктор Джекил/мистер Хайд.
Члены Лиги крайние индивидуалисты, изгои с разным прошлым и уникальными талантами, которые люди или проклинают или благославляют. Теперь они должны научиться доверять друг другу и работать в одной команде, чтобы спасти человечество. Им предстоит срочное задание: на «Наутилусе», подводной лодке Капитана Немо, переправиться в Италию, в Венецию, где некий безумец в маске по прозвищу Фантом планирует сорвать конференцию мировых лидеров, подорвав и затопив город.
Это преступление может обернутся катастрофой для всей планеты. Чтобы его предотвратить, в распоряжении у Лиги выдающихся джентльменов всего девять часов


Качество: BDRip
Формат: AVI
Видео кодек: XviD
Аудио кодек: AC3
Видео: 720x304 (2.37:1), 23.976 fps, XviD MPEG-4 ~1515 kbps avg, 0.29 bit/pixel
Аудио #1: 48 kHz, AC3 Dolby Digital, 3/2 (L,C,R,l,r) + LFE ch, ~448 kbps [А.Гаврилов]
Аудио #2: 48 kHz, AC3 Dolby Digital, 3/2 (L,C,R,l,r) + LFE ch, ~448 kbps [Ю.Живов]
Аудио #3: 48 kHz, AC3 Dolby Digital, 3/2 (L,C,R,l,r) + LFE ch, ~448 kbps [Оригинал]
General
Complete name : E:INTERNETLiga dzentlmenov.2003.BDRip.2xAVO.avi
Format : AVI
Format/Info : Audio Video Interleave
Format profile : OpenDML
File size : 2.20 GiB
Duration : 1h 50mn
Overall bit rate : 2 867 Kbps
Writing application : VirtualDubModRus 1.5.10.2 (build 2542/release)
Writing library : VirtualDubMod build 2542/release

Video
ID : 0
Format : MPEG-4 Visual
Format profile : Advanced Simple@L5
Format settings, BVOP : Yes
Format settings, QPel : No
Format settings, GMC : No warppoints
Format settings, Matrix : Custom
Codec ID : XVID
Codec ID/Hint : XviD
Duration : 1h 50mn
Bit rate : 1 499 Kbps
Width : 720 pixels
Height : 304 pixels
Display aspect ratio : 2.35:1
Frame rate : 23.976 fps
Color space : YUV
Chroma subsampling : 4:2:0
Bit depth : 8 bits
Scan type : Progressive
Bits/(Pixel*Frame) : 0.286
Stream size : 1.15 GiB (52%)
Writing library : XviD 58

Audio #1
ID : 1
Format : AC-3
Format/Info : Audio Coding 3
Mode extension : CM (complete main)
Codec ID : 2000
Duration : 1h 50mn
Bit rate mode : Constant
Bit rate : 448 Kbps
Channel(s) : 6 channels
Channel positions : Front: L C R, Side: L R, LFE
Sampling rate : 48.0 KHz
Bit depth : 16 bits
Stream size : 353 MiB (16%)
Alignment : Split accross interleaves
Interleave, duration : 42 ms (1.00 video frame)
Title : AVO ( А.Гаврилов )

Audio #2
ID : 2
Format : AC-3
Format/Info : Audio Coding 3
Mode extension : CM (complete main)
Codec ID : 2000
Duration : 1h 50mn
Bit rate mode : Constant
Bit rate : 448 Kbps
Channel(s) : 6 channels
Channel positions : Front: L C R, Side: L R, LFE
Sampling rate : 48.0 KHz
Bit depth : 16 bits
Stream size : 353 MiB (16%)
Alignment : Split accross interleaves
Interleave, duration : 42 ms (1.00 video frame)
Title : AVO ( Ю.Живов )

Audio #3
ID : 3
Format : AC-3
Format/Info : Audio Coding 3
Mode extension : CM (complete main)
Codec ID : 2000
Duration : 1h 50mn
Bit rate mode : Constant
Bit rate : 448 Kbps
Channel(s) : 6 channels
Channel positions : Front: L C R, Side: L R, LFE
Sampling rate : 48.0 KHz
Bit depth : 16 bits
Stream size : 353 MiB (16%)
Alignment : Split accross interleaves
Interleave, duration : 42 ms (1.00 video frame)
Title : Оригинал
pb.wtf



Скачать Лига выдающихся джентльменов через торрент http://i50.tinypic.com/24kwaqb.png Скачать, смотреть онлайн Лига выдающихся джентльменов бесплантно в хорошем качестве Описание: Викторианская Англия. Лига выдающихся джентльменов это отряд супергероев под предводительством бесстрашного искателя ... 9.8 10 6
Info! Золотая раздача, скачанное не засчитывается.
Торрент: Зарегистрирован [2013-11-10 13:52] · скачан: 104 раз
Статус: √ проверено
Размер: 2.2 GB
Как cкачать? Как скачать Лига выдающихся джентльменов через торрент | UTorrent

% Раздел Тема Автор DL S | L
Фильмы (HD 720p, 1080p) (48-60 fps) [ 3.52 GB ] Лига выдающихся джентльменов / The League of Extraordinary Gentlemen [2003 BDRip 720p / 60 FPS ] от R.G. HD-Films slaventi-69 Скачать
1 | 0
Фильмы до 2000 г. [ 3.27 GB ] Лига выдающихся джентльменов / The League of Extraordinary Gentlemen [2003 BDRip-AVC] DUB MVO 2 x AVO msltel Скачать
2 | 0
Фильмы [HD 720p, 1080p] (Хороший звук DUB, MVO) [ 4.27 GB ] Лига выдающихся джентльменов / The League of Extraordinary Gentlemen [2003 BDRip 720p] DUB MVO 2 x AVO msltel Скачать
2 | 0
Фильмы [HD 720p, 1080p] (Хороший звук DUB, MVO) [ 16.8 GB ] Лига выдающихся джентльменов / The League of Extraordinary Gentlemen [2003 BDRip 1080p DUB MVO DVO AVO] кэп Скачать
1 | 0
Фильмы 2001-2005 [ 2.18 GB ] Лига выдающихся джентльменов / The League of extraordinary gentlemen [2003 HDRip] .::Sergey::. Скачать
1 | 0
Фильмы [HD 720p, 1080p] (Хороший звук DUB, MVO) [ 9.31 GB ] Лига выдающихся джентльменов / The League of Extraordinary Gentlemen [2003 BDRip DUB ] VintMosina Скачать
1 | 0
Фильмы 2001-2005 [ 2.18 GB ] Лига выдающихся джентльменов / League of Extraordinary Gentlemen The [2003 Фэнтази BDRip] Joup Скачать
1 | 0

28-11-2019 20:33  

Отключить всю рекламу на сайте

10-11-2013 15:26 Лига выдающихся джентльменов Скачать торрент  

ваще суперский фильм был в свое времяpb.wtf



    Дорогой пользователь! Огромная просьба, поблагодарите релизера, оцените раздачу и оставьте свои комментарий, если Вы скачали Лига выдающихся джентльменов через торрент бесплатно!
    Комментировать посты могут только пользователи прошедшие не сложную регистрацию
    Показать сообщения:    

    Лига выдающихся джентльменов через торрент
    Скачать бесплатно Лига выдающихся джентльменов
    Лига выдающихся джентльменов скачать торрент
    Лига выдающихся джентльменов смотреть онлайн
    Cкачать фильм Лига выдающихся джентльменов бесплатно
    Лига выдающихся джентльменов скачать торрент в хорошем качестве
    Лига выдающихся джентльменов смотреть онлайн бесплатно в хорошем качестве


    Вы не можете начинать темы
    Вы не можете отвечать на сообщения
    Вы не можете редактировать свои сообщения
    Вы не можете удалять свои сообщения
    Вы не можете голосовать в опросах
    Вы не можете прикреплять файлы к сообщениям
    Вы можете скачивать файлы