Ссылка на приватное зеркало нашего сайта всего за 1$. Внимание количество ограничено!!!

2 сезон

iTunes

1 сезон

1

iTunes

iTunes

iTunes

1 сезон

RePack

30

ИГРА 18+

pack

ВАЖНО

!!Акция!!

Alien_RageХит недели

RePack

MK11
pack

Забери бонус

RePack

jed

!!Акция!!

Alien_Rage

RePack

fifa19

RePack

Assassins Creed: Odyssey

RePack

NEED FOR SPEED™ PAYBACK

4 сезон

9 сезон

Бесстыжие 9 сезон

Все сериалы

все сериалы на PB.wtf

RePack

FAR CRY 5
  

Один на всех /1-4 серия из 4/ (Алексей Праздников) [2013 , Россия , мелодрама , WEB-DLRip , Original] pb.wtf

Один на всех через торрент pb.wtf

Размер: 2.68 GB | Добавлен: 6 лет 11 мес. назад | Торрент скачан:306 раз
Скачать  

11-11-2013 09:29 Один на всех Скачать торрент  

Один на всех

Год выпуска: 2013
Страна: Россия
Выпущено: ГРИН-ФИЛЬМ, "ПРИОР Продакшн"
Жанр: мелодрама
Продолжительность: 00:46:22
Перевод: Оригинальный


Режиссер: Алексей Праздников
В ролях: Александр Дьяченко, Карина Разумовская, Лора Коробских (заведующая детским садом), Ольга Сухорукова (Светик), Регина Бекетова (Лариса), Стефан Отто (Лёнечка), Анастасия Иваненко (Маруся), Марина Волкова (агент по недвижимости)

Описание: В зале суда сорокалетний мужчина, подполковник в отставке Евгений Геннадьевич Александров разводится с женой. Ухоженная вздорная женщина обвиняет бывшего мужа во всех смертных грехах - из-за него ее жизнь прошла в далеких гарнизонах, из-за него она не может иметь детей, из-за его вынужденной отставки и малой пенсии она должна искать работу, хотя привыкла сидеть дома. Евгений Геннадьевич терпит ее выступление как зубную боль. Развод происходит по его инициативе и он отказывается от всего небольшого имущества - машины и квартиры в ближнем Подмосковье - в пользу жены.
Так, к сорока годам, Евгений Геннадьевич оказался без крыши над головой, без семьи, без работы. Теперь он возвращался в город своего детства. Там, с момента смерти его мамы, пустовала квартира в старом доме на окраине города.
Приехав, Александров не узнает свой дом. Во всем царит разруха. Александров встречает свою подружку детства, Лиду. Она хоть и ровесница Александрова, но выглядит намного старше его. На ее судьбу выпало много бед и забот. От нее Александров узнает, что в доме, где прошло его детство, остались только женщины - старушки, пожилые женщины с дочками, молодые одинокие мамы с детьми...
Александров чувствует, что нужен женщинам, живущим в доме. Каждая из них видит в нем того мужчину, которого ей отчаянно не хватает - мужа, отца, сына, друга, способного заступиться, добиться справедливости и поставить на место обидчика. Евгений Геннадьевич входит в положение женщин и начинает распутывать ситуации, помогать, искать виноватых, вставать на защиту.
Так он оказывается героем разных историй, мужчиной, который «один на всех»...

Рейтинг
kinopoisk.ru: 6.315 (111)
Премьера (РФ): 23 марта 2013
Релиз на DVD: 19 марта 2013

  • Качество: WEB-DLRip
  • Формат: AVI
  • Видео кодек: XviD
  • Аудио кодек: AC3
  • Видео: XviD, 720x400 (16:9), 1899 kbps, 50 fps, 0,132 bpp
  • Аудио: AC3 / 2.0 / 48 kHz / 192 kbps / 16 bit
    Format : AVI
    Format/Info : Audio Video Interleave
    File size : 700 MiB
    Duration : 46mn 22s
    Overall bit rate : 2 111 Kbps
    Writing application : VirtualDubMod 1.5.10.2 (build 2540/release)
    Writing library : VirtualDubMod build 2540/release

    Video
    ID : 0
    Format : MPEG-4 Visual
    Format profile : Advanced Simple@L5
    Format settings, BVOP : 4
    Format settings, QPel : No
    Format settings, GMC : No warppoints
    Format settings, Matrix : Default (H.263)
    Codec ID : XVID
    Codec ID/Hint : XviD
    Duration : 46mn 22s
    Bit rate : 1 900 Kbps
    Width : 720 pixels
    Height : 400 pixels
    Display aspect ratio : 16:9
    Frame rate : 50.000 fps
    Color space : YUV
    Chroma subsampling : 4:2:0
    Bit depth : 8 bits
    Scan type : Progressive
    Compression mode : Lossy
    Bits/(Pixel*Frame) : 0.132
    Stream size : 630 MiB (90%)
    Writing library : XviD 1.2.1 (UTC 2008-12-04)

    Audio
    ID : 1
    Format : AC-3
    Format/Info : Audio Coding 3
    Mode extension : CM (complete main)
    Codec ID : 2000
    Duration : 46mn 22s
    Bit rate mode : Constant
    Bit rate : 192 Kbps
    Channel(s) : 2 channels
    Channel positions : Front: L R
    Sampling rate : 48.0 KHz
    Bit depth : 16 bits
    Compression mode : Lossy
    Stream size : 63.7 MiB (9%)
    Alignment : Split accross interleaves
    Interleave, duration : 20 ms (1.00 video frame)
    Interleave, preload duration : 500 ms
    pb.wtf



  • Скачать Один на всех через торрент http://i3.imageban.ru/out/2013/11/11/e97df3dd8a3304b025ce4bfadeb07f75.png Скачать фильм Один на всех через торрент бесплантно в хорошем качестве Описание: В зале суда сорокалетний мужчина, подполковник в отставке Евгений Геннадьевич Александров разводится с женой. Ухоженная вздорная ... 9.8 10 6
    Info! Золотая раздача, скачанное не засчитывается.
    Торрент: Зарегистрирован [2013-11-11 09:29] · скачан: 306 раз
    Статус: √ проверено
    Размер: 2.68 GB
    Как cкачать? Как скачать Один на всех через торрент | qTorrent

    % Раздел Тема Автор DL S | L
    Наши сериалы [ 2.42 GB ] Снова один на всех / / Серии 1-4 из 4 [2014 Россия SATRip) GEKADOL Скачать
    1 | 0

    28-11-2019 20:33  

    Отключить всю рекламу на сайте

      Дорогой пользователь! Огромная просьба, поблагодарите релизера, оцените раздачу и оставьте свои комментарий, если Вы скачали Один на всех через торрент бесплатно! Внесите свою лепту в развитие PiratBit!
      Комментировать посты могут только пользователи прошедшие не сложную регистрацию
      Показать сообщения:    

      Один на всех через торрент
      Скачать бесплатно Один на всех
      Один на всех скачать торрент
      Один на всех смотреть онлайн
      Cкачать фильм Один на всех бесплатно
      Один на всех скачать торрент в хорошем качестве
      Один на всех смотреть онлайн бесплатно в хорошем качестве


      Вы не можете начинать темы
      Вы не можете отвечать на сообщения
      Вы не можете редактировать свои сообщения
      Вы не можете удалять свои сообщения
      Вы не можете голосовать в опросах
      Вы не можете прикреплять файлы к сообщениям
      Вы можете скачивать файлы