Ссылка на приватное зеркало нашего сайта всего за 1$. Внимание количество ограничено!!!

2 сезон

iTunes

1 сезон

1

iTunes

iTunes

iTunes

1 сезон

RePack

30

ИГРА 18+

pack

ВАЖНО

!!Акция!!

Alien_RageХит недели

RePack

MK11
pack

Забери бонус

RePack

jed

!!Акция!!

Alien_Rage

RePack

fifa19

RePack

Assassins Creed: Odyssey

RePack

NEED FOR SPEED™ PAYBACK

4 сезон

9 сезон

Бесстыжие 9 сезон

Все сериалы

все сериалы на PB.wtf

RePack

FAR CRY 5
  

Догма / Dogma (Кевин Смит) [1999 г., фэнтези, комедия, приключения, BDRip 1080p, Дубляж + Оригинал] pb.wtf

Догма через торрент pb.wtf

Размер: 7.76 GB | Добавлен: 6 лет 11 мес. назад | Торрент скачан:106 раз
Скачать  

11-11-2013 19:53 Догма Скачать торрент  

Догма / Dogma
Год выпуска: 1999
Страна: США
Жанр: фэнтези, комедия, приключения,
Продолжительность: 02:08:11
Перевод: Дубляж + Оригинал
Субтитры: русские, английские

Режиссер: Кевин Смит

В ролях: Бен Аффлек, Мэтт Дэймон, Линда Фиорентино, Кевин Смит, Джейсон Ли, Крис Рок, Сэльма Хайек,

Описание: Два падших ангела, Локи и Бартлби, обреченные вечность торчать в штате Висконсин, узнали, что у них есть шанс вернуться в рай. Для этого нужно всего лишь воспользоваться ошибочной церковной католической догмой, провозглашенной кардиналом-новатором: каждый, прошедший через освященную арку в соборе в Нью-Джерси, получает отпущение грехов. Пройдя через нее, Локи и Бартлби получат прощение, далее им надо стать смертными, умереть и возвратиться в рай.
Есть только одно но. Если это произойдет, то исчезнет все сущее на земле, включая род людской. Помешать этому может только пра-пра… пра-пра племянница Иисуса Христа по имени Вифания, которой помогают тринадцатый апостол Руфус и два смертных пророка, одного из которых играет сам режиссер, а второго — его друг Джейсон Мьюз. К ним присоединяется уже давно живущая на земле Муза по имени Серендипити, подрабатывающая стриптизёршей…

Качество: BDRip 1080p
Формат: MKV
Видео кодек: H.264
Аудио кодек: AC3
Видео: (1920x800),7390 Кбит/с, 23.976 кадра/сек
Аудио#1: AC-3, 6 ch,640 kbps (Rus) 48.0 KHz Дубляж
Аудио#2: AC-3, 6 ch,640 kbps (Eng) 48.0 KHz Оригинал
скриншот   скриншот   скриншот  

Общее
Уникальный идентификатор : 240249392313997302965026362834905234779 (0xB4BE59919808F2B3A4AD39D61B807D5B)
Полное имя : Догма.1999.BDRip.1080p.Rus.Eng.mkv
Формат : Matroska
Версия формата : Version 2
Размер файла : 7,76 Гбайт
Продолжительность : 2 ч. 8 м.
Общий поток : 8671 Кбит/сек
Название фильма : Догма.1999
Дата кодирования : UTC 2013-11-11 14:53:32
Программа кодирования : mkvmerge v5.8.0 ('No Sleep / Pillow') built on Sep 2 2012 15:37:04
Библиотека кодирования : libebml v1.2.3 + libmatroska v1.3.0

Видео
Идентификатор : 1
Формат : AVC
Формат/Информация : Advanced Video Codec
Профиль формата : High@L4.1
Параметр CABAC формата : Да
Параметр ReFrames формата : 5 кадров
Идентификатор кодека : V_MPEG4/ISO/AVC
Продолжительность : 2 ч. 8 м.
Битрейт : 7390 Кбит/сек
Ширина : 1920 пикселей
Высота : 800 пикселей
Соотношение сторон : 2,40:1
Режим частоты кадров : Постоянный
Частота кадров : 23,976 кадра/сек
Цветовое пространство : YUV
Субдискретизация насыщенности : 4:2:0
Битовая глубина : 8 бит
Тип развёртки : Прогрессивная
Бит/(Пиксели*Кадры) : 0.201
Размер потока : 6,46 Гбайт (83%)
Заголовок : Rip by Boriy
Библиотека кодирования : x264 core 140 r2377 1ca7bb9
Настройки программы : cabac=1 / ref=5 / deblock=1:-3:-3 / analyse=0x3:0x113 / me=umh / subme=11 / psy=1 / psy_rd=1.00:0.00 / mixed_ref=1 / me_range=32 / chroma_me=1 / trellis=2 / 8x8dct=1 / cqm=0 / deadzone=21,11 / fast_pskip=0 / chroma_qp_offset=-2 / threads=12 / lookahead_threads=1 / sliced_threads=0 / nr=0 / decimate=0 / interlaced=0 / bluray_compat=0 / constrained_intra=0 / bframes=6 / b_pyramid=2 / b_adapt=2 / b_bias=0 / direct=3 / weightb=1 / open_gop=0 / weightp=2 / keyint=240 / keyint_min=23 / scenecut=40 / intra_refresh=0 / rc=2pass / mbtree=0 / bitrate=7390 / ratetol=1.0 / qcomp=0.60 / qpmin=0 / qpmax=69 / qpstep=4 / cplxblur=20.0 / qblur=0.5 / ip_ratio=1.40 / pb_ratio=1.30 / aq=1:0.80
Язык : English
Default : Да
Forced : Нет

Аудио #1
Идентификатор : 2
Формат : AC-3
Формат/Информация : Audio Coding 3
Расширение режима : CM (complete main)
Параметр Endianness формата : Big
Идентификатор кодека : A_AC3
Продолжительность : 2 ч. 8 м.
Вид битрейта : Постоянный
Битрейт : 640 Кбит/сек
Каналы : 6 каналов
Расположение каналов : Front: L C R, Side: L R, LFE
Частота : 48,0 КГц
Битовая глубина : 16 бит
Метод сжатия : С потерями
Размер потока : 587 Мбайт (7%)
Заголовок : Дубляж
Язык : Russian
Default : Да
Forced : Нет

Аудио #2
Идентификатор : 3
Формат : AC-3
Формат/Информация : Audio Coding 3
Расширение режима : CM (complete main)
Параметр Endianness формата : Big
Идентификатор кодека : A_AC3
Продолжительность : 2 ч. 8 м.
Вид битрейта : Постоянный
Битрейт : 640 Кбит/сек
Каналы : 6 каналов
Расположение каналов : Front: L C R, Side: L R, LFE
Частота : 48,0 КГц
Битовая глубина : 16 бит
Метод сжатия : С потерями
Размер потока : 587 Мбайт (7%)
Заголовок : Оригинал
Язык : English
Default : Нет
Forced : Нет

Текст #1
Идентификатор : 4
Формат : UTF-8
Идентификатор кодека : S_TEXT/UTF8
Идентификатор кодека/Информация : UTF-8 Plain Text
Язык : Russian
Default : Нет
Forced : Нет

Текст #2
Идентификатор : 5
Формат : UTF-8
Идентификатор кодека : S_TEXT/UTF8
Идентификатор кодека/Информация : UTF-8 Plain Text
Язык : English
Default : Нет
Forced : Нет

Меню
00:00:00.000 : :Chapter 1
00:06:49.951 : :Chapter 2
00:12:38.632 : :Chapter 3
00:17:56.492 : :Chapter 4
00:24:30.260 : :Chapter 5
00:36:39.238 : :Chapter 6
00:41:18.184 : :Chapter 7
00:46:53.227 : :Chapter 8
00:54:03.990 : :Chapter 9
01:01:49.580 : :Chapter 10
01:11:47.219 : :Chapter 11
01:17:45.869 : :Chapter 12
01:23:53.653 : :Chapter 13
01:33:36.569 : :Chapter 14
01:40:33.027 : :Chapter 15
01:50:03.513 : :Chapter 16

pb.wtf



Скачать Догма через торрент http://pic.kartinco.top/images/6/eik4v.jpg Скачать фильм Догма через торрент бесплантно в хорошем качестве Описание: Два падших ангела, Локи и Бартлби, обреченные вечность торчать в штате Висконсин, узнали, что у них есть шанс вернуться в рай. ... 10 10 14
Info! Золотая раздача, скачанное не засчитывается.
Торрент: Зарегистрирован [2013-11-11 19:53] · скачан: 106 раз
Статус: √ проверено
Размер: 7.76 GB
Как cкачать? Как скачать Догма через торрент | qTorrent

% Раздел Тема Автор DL S | L
Аниме [HD 720p, 1080p] [ 2.43 GB ] Догма дракона / Dragon's Dogma / Сезон 1 / Серии 1-7 из 7 [2020 экшен HDTV 1080p] [MVO] GuruBrain Скачать
3 | 0
Фильмы [HD 720p, 1080p] (Хороший звук DUB, MVO) [ 15.56 GB ] Догма / Dogma [1999 BDRip 1080p] DUB 6 x AVO msltel Скачать
2 | 0
Фильмы [HD 720p, 1080p] (Хороший звук DUB, MVO) [ 7.44 GB ] Догма / Dogma [1999 BDRip 720p] DUB 6 x AVO msltel Скачать
1 | 0
Фильмы до 2000 г. [ 1.47 GB ] Догма / Dogma [1999 BDRip]DUB + AVO sokol_ok Скачать
3 | 0
Фильмы до 2000 г. [ 3.28 GB ] Догма / Dogma [1999 DVDRip] war22200 Скачать
1 | 0
Фильмы до 2000 г. [ 1.45 GB ] Догма / Dogma [1999 HDRip] aleksandrlisenko68 Скачать
1 | 0
Фильмы до 2000 г. [ 683 MB ] Догма / Dogma [1999 DVDRip] alexx Скачать
1 | 0

28-11-2019 20:33  

Отключить всю рекламу на сайте

11-11-2013 22:10 Догма Скачать торрент  

Хорошее кино и качество отменное! yes
Но всё же в авторском одноголосом Живова - правильнее и смешнее pb.wtf



03-01-2015 14:53 Догма Скачать торрент  

поддайте скоростиpb.wtf



    Дорогой пользователь! Огромная просьба, поблагодарите релизера, оцените раздачу и оставьте свои комментарий, если Вы скачали Догма через торрент бесплатно! Внесите свою лепту в развитие PiratBit!
    Комментировать посты могут только пользователи прошедшие не сложную регистрацию
    Показать сообщения:    

    Догма через торрент
    Скачать бесплатно Догма
    Догма скачать торрент
    Догма смотреть онлайн
    Cкачать фильм Догма бесплатно
    Догма скачать торрент в хорошем качестве
    Догма смотреть онлайн бесплатно в хорошем качестве


    Вы не можете начинать темы
    Вы не можете отвечать на сообщения
    Вы не можете редактировать свои сообщения
    Вы не можете удалять свои сообщения
    Вы не можете голосовать в опросах
    Вы не можете прикреплять файлы к сообщениям
    Вы можете скачивать файлы