1 сезон

1 сезон

iTunes

1

КиноПоиск HD

Кинопоиск HD

iTunes

13

1 сезон

RePack

30

Новинка

ВАЖНО

ИГРА 18+

pack

RePack

MK11
pack

Легкие деньги

RePack

jed

RePack

fifa19

RePack

RDR2

RePack

NEED FOR SPEED™ PAYBACK

4 сезон

9 сезон

Бесстыжие 9 сезон

Все сериалы

все сериалы на PB.wtf

RePack

FAR CRY 5
  
Magnet ссылка

Че Гевара: Дневники мотоциклиста / Diarios de motocicleta (Уолтер Саллес) [2004 г., Драма, Биография, DVDRip, Профессиональный двухголосый] pb.wtf

Че Гевара: Дневники мотоциклиста через торрент pb.wtf

Размер: 701 MB | Добавлен: 7 лет 4 мес. назад | Торрент скачан:54 раза
Скачать  

13-11-2013 09:38 Че Гевара: Дневники мотоциклиста Скачать торрент  

Че Гевара: Дневники мотоциклиста / Diarios de motocicleta
Diarios de motocicleta

Год выпуска: 2004
Страна: Аргентина, США, Германия, Бразилия, Великобритания, Чили, Перу, Франция
Жанр: Драма, Биография
Продолжительность: 02:00:40
Перевод: Профессиональный двухголосый

Режиссер: Уолтер Саллес
Продюссер: Даниэль Бурман, Диего Дубковский, Моника Лима
Сценарий: Хосе Ривера, Эрнесто Че Гевара, Альберто Гранадо

Премьера в мире: 15 января 2004

Рейтинг R - Детям до 17 лет обязательно присутствие родителей



В ролях:
Гаэль Гарсиа Берналь
Родриго де ла Серна

Описание: Фильм повествует о путешествии по странам Латинской Америки, совершенном в 1952 году Эрнесто Че Геварой и его другом Альберто Гранадосом. Он рассказывает о жизни простых латиноамериканцев и о том, как под воздействием увиденного у Че Гевары зарождаются основы его идеологии.

Качество: DVDRip
Формат: AVI
Видео кодек: DivX 5
Аудио кодек: AC3
Видео: DivX 5 576x320 25fps 421 Kbps
Аудио: Dolby AC3 48000Hz 5ch 384kbps
скриншот   скриншот   скриншот   скриншот   скриншот   скриншот  





General
Format : AVI
Format/Info : Audio Video Interleave
File size : 701 MiB
Duration : 2h 0mn
Overall bit rate : 812 Kbps
Writing application : VirtualDubMod 1.5.4.1 (build 2178/release)
Writing library : VirtualDubMod build 2178/release

Video
ID : 0
Format : MPEG-4 Visual
Format settings, BVOP : 1
Format settings, QPel : No
Format settings, GMC : No warppoints
Format settings, Matrix : Default (H.263)
Muxing mode : Packed bitstream
Codec ID : DX50
Codec ID/Hint : DivX 5
Duration : 2h 0mn
Bit rate : 421 Kbps
Width : 576 pixels
Height : 320 pixels
Display aspect ratio : 16:9
Frame rate : 25.000 fps
Color space : YUV
Chroma subsampling : 4:2:0
Bit depth : 8 bits
Scan type : Progressive
Compression mode : Lossy
Bits/(Pixel*Frame) : 0.091
Stream size : 364 MiB (52%)
Writing library : DivX 5.2.1 (WaffleDay) (UTC 2004-09-08)

Audio
ID : 1
Format : AC-3
Format/Info : Audio Coding 3
Mode extension : CM (complete main)
Format settings, Endianness : Big
Codec ID : 2000
Duration : 2h 0mn
Bit rate mode : Constant
Bit rate : 384 Kbps
Channel(s) : 5 channels
Channel positions : Front: L C R, Side: L R
Sampling rate : 48.0 KHz
Bit depth : 16 bits
Compression mode : Lossy
Stream size : 331 MiB (47%)
Alignment : Split accross interleaves
Interleave, duration : 96 ms (2.40 video frames)
Interleave, preload duration : 96 ms

pb.wtf



Скачать Че Гевара: Дневники мотоциклиста через торрент https://pic.kartinco.top/images/6/blrtc.jpg Скачать фильм Че Гевара: Дневники мотоциклиста через торрент бесплантно в хорошем качестве Описание: Фильм повествует о путешествии по странам Латинской Америки, совершенном в 1952 году Эрнесто Че Геварой и его другом Альберто ... 10 10 5
Info! Золотая раздача, скачанное не засчитывается.
Торрент: Зарегистрирован [2013-11-13 09:38] · скачан: 54 раз
Статус: √ проверено
Размер: 701 MB
Как cкачать? Как скачать Че Гевара: Дневники мотоциклиста через торрент | UTorrent

% Раздел Тема Автор DL S | L
Фильмы [HD 720p, 1080p] (Хороший звук DUB, MVO) [ 11.7 GB ] Че Гевара: Дневники мотоциклиста / Diarios de motocicleta [2004 биография ... BDRip ] Simons cat Скачать
1 | 0


Последний раз редактировалось: terraner (2013-11-13 20:19), всего редактировалось 2 раз(а)

28-11-2019 20:33  

Отключить всю рекламу на сайте

    Дорогой пользователь! Огромная просьба, поблагодарите релизера, оцените раздачу и оставьте свои комментарий, если Вы скачали Че Гевара: Дневники мотоциклиста через торрент бесплатно! Внесите свою лепту в развитие PiratBit!
    Комментировать посты могут только пользователи прошедшие не сложную регистрацию
    Показать сообщения:    

    Че Гевара: Дневники мотоциклиста через торрент
    Скачать бесплатно Че Гевара: Дневники мотоциклиста
    Че Гевара: Дневники мотоциклиста скачать торрент
    Че Гевара: Дневники мотоциклиста смотреть онлайн
    Cкачать фильм Че Гевара: Дневники мотоциклиста бесплатно
    Че Гевара: Дневники мотоциклиста скачать торрент в хорошем качестве
    Че Гевара: Дневники мотоциклиста смотреть онлайн бесплатно в хорошем качестве


    Вы не можете начинать темы
    Вы не можете отвечать на сообщения
    Вы не можете редактировать свои сообщения
    Вы не можете удалять свои сообщения
    Вы не можете голосовать в опросах
    Вы не можете прикреплять файлы к сообщениям
    Вы можете скачивать файлы