2 сезон

iTunes

MVO

1

2 сезон

iTunes

iTunes

1 сезон

RePack

30

Новинка

ВАЖНО

ИГРА 18+

pack

RePack

MK11
pack

Легкие деньги

RePack

jed

RePack

fifa19

RePack

RDR2

RePack

NEED FOR SPEED™ PAYBACK

4 сезон

9 сезон

Бесстыжие 9 сезон

Все сериалы

все сериалы на PB.wtf

RePack

FAR CRY 5

Anonymous, доброй ночи, мы не успеваем собрать деньги на оплату серверов за декабрь и январь, помогите нам пожалуйста в это трудное время. В качестве благодарности мы отключим Вам всю рекламу на сайте (укажите свой ник в строку Ваше имя)!

×
  
Magnet ссылка

Паранойя / Paranoia (Роберт Лукетич / Robert Luketic) [2013 г., триллер, драма, BDRip, Профессиональный (многоголосый закадровый) BaibaKo] pb.wtf

Паранойя через торрент pb.wtf

Размер: 1.46 GB | Добавлен: 7 лет 2 мес. назад | Торрент скачан:1197 раз
Скачать  

13-11-2013 17:14 Паранойя Скачать торрент  

Паранойя / Paranoia
Год выпуска: 2013
Страна: США, Франция / Reliance Entertainment
Жанр: триллер, драма,
Продолжительность: 01:46:06
Перевод: Профессиональный (многоголосый закадровый) BaibaKo

Режиссер: Роберт Лукетич / Robert Luketic

В ролях: Лиам Хемсворт, Гари Олдман, Эмбер Хёрд, Харрисон Форд, Лукас Тилл, Эмбет Дэвидц, Джулиан МакМэхон, Джош Холлоуэй, Ричард Дрейфусс, Анджела Сарафян,

Описание: Адам Кэссиди — типичный «белый воротничок», пытающийся преуспеть на должности молодого специалиста в крупной телекоммуникационной корпорации. После одной весьма дорогостоящей ошибки он сталкивается лицом к лицу с безжалостным президентом компании, который соглашается не увольнять провинившегося при одном условии: Адам должен шпионить за старым наставником своего босса…



Качество: BDRip
Формат: AVI
Видео кодек: XviD
Аудио кодек: AC3
Видео: 720x304, 1571 Kbps, 23.976 fps, 0.30 bit/pixel
Аудио: 384 Kbps, (6 ch), 48.0 KHz




Format : AVI
Format/Info : Audio Video Interleave
File size : 1.46 GiB
Duration : 1h 46mn
Overall bit rate : 1 965 Kbps
Writing application : VirtualDubMod 1.5.10.3 | www.virtualdub-fr.org || (build 2550/release)
Writing library : VirtualDubMod build 2550/release

Video
ID : 0
Format : MPEG-4 Visual
Format profile : Advanced Simple@L5
Format settings, BVOP : 1
Format settings, QPel : No
Format settings, GMC : No warppoints
Format settings, Matrix : Custom
Codec ID : XVID
Codec ID/Hint : XviD
Duration : 1h 46mn
Bit rate : 1 572 Kbps
Width : 720 pixels
Height : 304 pixels
Display aspect ratio : 2.35:1
Frame rate : 23.976 fps
Color space : YUV
Chroma subsampling : 4:2:0
Bit depth : 8 bits
Scan type : Progressive
Compression mode : Lossy
Bits/(Pixel*Frame) : 0.300
Stream size : 1.16 GiB (80%)
Writing library : XviD 73

Audio
ID : 1
Format : AC-3
Format/Info : Audio Coding 3
Mode extension : CM (complete main)
Format settings, Endianness : Big
Codec ID : 2000
Duration : 1h 46mn
Bit rate mode : Constant
Bit rate : 384 Kbps
Channel(s) : 6 channels
Channel positions : Front: L C R, Side: L R, LFE
Sampling rate : 48.0 KHz
Bit depth : 16 bits
Compression mode : Lossy
Stream size : 291 MiB (20%)
Alignment : Split accross interleaves
Interleave, duration : 42 ms (1.00 video frame)
Interleave, preload duration : 500 ms

pb.wtf



Скачать Паранойя через торрент http://pic.kartinco.top/images/6/nvcb7.jpg Скачать фильм Паранойя через торрент бесплантно в хорошем качестве Описание: Адам Кэссиди — ичный «белый воротничок», пытающийся преуспеть на должности молодого специалиста в крупной телекоммуникационной ... 9.6 10 38
Info! Золотая раздача, скачанное не засчитывается.
Торрент: Зарегистрирован [2013-11-13 17:14] · скачан: 1 197 раз
Статус: √ проверено
Размер: 1.46 GB
Как cкачать? Как скачать Паранойя через торрент | UTorrent

28-11-2019 20:33  

Отключить всю рекламу на сайте

    Дорогой пользователь! Огромная просьба, поблагодарите релизера, оцените раздачу и оставьте свои комментарий, если Вы скачали Паранойя через торрент бесплатно! Внесите свою лепту в развитие PiratBit!
    Комментировать посты могут только пользователи прошедшие не сложную регистрацию
    Показать сообщения:    

    Паранойя через торрент
    Скачать бесплатно Паранойя
    Паранойя скачать торрент
    Паранойя смотреть онлайн
    Cкачать фильм Паранойя бесплатно
    Паранойя скачать торрент в хорошем качестве
    Паранойя смотреть онлайн бесплатно в хорошем качестве


    Вы не можете начинать темы
    Вы не можете отвечать на сообщения
    Вы не можете редактировать свои сообщения
    Вы не можете удалять свои сообщения
    Вы не можете голосовать в опросах
    Вы не можете прикреплять файлы к сообщениям
    Вы можете скачивать файлы