Ссылка на приватное зеркало нашего сайта всего за 1$. Внимание количество ограничено!!!

2 сезон

iTunes

1 сезон

1

iTunes

iTunes

iTunes

1 сезон

RePack

30

ИГРА 18+

pack

ВАЖНО

!!Акция!!

Alien_RageХит недели

RePack

MK11
pack

Забери бонус

RePack

jed

!!Акция!!

Alien_Rage

RePack

fifa19

RePack

Assassins Creed: Odyssey

RePack

NEED FOR SPEED™ PAYBACK

4 сезон

9 сезон

Бесстыжие 9 сезон

Все сериалы

все сериалы на PB.wtf

RePack

FAR CRY 5
  

Два отца и два сына / 1 сезон / 01-20 из 20 (Радда Новикова) [2013, Россия, комедия, WEBRip-AVC] pb.wtf

Два отца и два сына через торрент pb.wtf

Размер: 7.8 GB | Добавлен: 6 лет 11 мес. назад | Торрент скачан:1455 раз
Скачать  

14-11-2013 10:43 Два отца и два сына Скачать торрент  



Год выпуска : 2013
Страна: Россия
Жанр: комедия

Продолжительность: 00:24:47
Перевод: Не требуется

Режиссер: Радда Новикова
В ролях: Дмитрий Нагиев (Павел), Максим Студеновский (Витя), Илья Костюков (Влад), Виктория Лукина (Аня), Анна Якунина (Вера Владимировна), Галина Петрова (режиссерша), Виктория Чернышёва (Люда), Александр Воронков (бандит), Юрий Панов (бандит), Михаил Данилин (бандит), Евгений Куликов (официант), Алика Смехова (Марго)
Описание: Павел Гуров - успешный актер, звезда телевизионного сериала «Майор Лавров». В жизни Гуров состоявшийся человек, состоятельный Казанова, который прожигает жизнь ради собственных удовольствий.
Всё меняется, когда на пороге его элитной квартиры появляется Виктор - сын, которого Павел бросил 20 лет назад, уехав в Москву строить свою актерскую карьеру. Виктор приезжает вместе с внуком Владом, которого Павел вообще никогда не видел. Виктор - полная противоположность Павла: неудачник, зануда, однолюб. Влад - смышлёный, инициативный мальчик.
Виктор стремится в Москву вслед за своей женой, которая бросила их с Владом в Брянске, уехав в столицу с мечтами стать актрисой. Виктор уверен, что за пару дней убедит жену вернуться в семью, и они вместе вернутся в Брянск. Но в силу обстоятельств Вите приходится задержаться, и Павел Гуров неожиданно для себя становится и отцом, и дедом.
Рейтинг

Качество: WEBRip-AVC
Формат: MKV
Видео кодек: AVC
Аудио кодек: MP3
Видео: 704x396 (16:9), 2059 kbps, 25 fps
Аудио: 2.0 / 44 kHz / 192 kbps /
General
Unique ID : 188657191121693371976252523306354757388 (0x8DEE0DA9090FF00A94DED98A00E84F0C)
Complete name : H:Dva.otca.i.dva.syna.2013.x264.WEBRip.(AVC)Dva.otca.i.dva.syna.(01.seriya).2013.x264.WEBRip.(AVC).mkv
Format : Matroska
Format version : Version 4 / Version 2
File size : 400 MiB
Duration : 24mn 47s
Overall bit rate : 2 253 Kbps
Encoded date : UTC 2013-10-21 18:15:05
Writing application : mkvmerge v6.1.0 ('Old Devil') built on Mar 2 2013 14:32:37
Writing library : libebml v1.3.0 + libmatroska v1.4.0

Video
ID : 1
Format : AVC
Format/Info : Advanced Video Codec
Format profile : High@L5.1
Format settings, CABAC : Yes
Format settings, ReFrames : 5 frames
Codec ID : V_MPEG4/ISO/AVC
Duration : 24mn 47s
Bit rate : 2 059 Kbps
Width : 704 pixels
Height : 396 pixels
Display aspect ratio : 16:9
Frame rate : 25.000 fps
Color space : YUV
Chroma subsampling : 4:2:0
Bit depth : 8 bits
Scan type : Progressive
Bits/(Pixel*Frame) : 0.295
Stream size : 358 MiB (89%)
Writing library : x264 core 138 r2358 9e941d1
Encoding settings : cabac=1 / ref=5 / deblock=1:-2:-2 / analyse=0x3:0x133 / me=umh / subme=7 / psy=1 / psy_rd=1.00:0.00 / mixed_ref=1 / me_range=32 / chroma_me=1 / trellis=2 / 8x8dct=1 / cqm=0 / deadzone=21,11 / fast_pskip=1 / chroma_qp_offset=-2 / threads=4 / lookahead_threads=1 / sliced_threads=0 / nr=0 / decimate=1 / interlaced=0 / bluray_compat=0 / constrained_intra=0 / bframes=5 / b_pyramid=2 / b_adapt=2 / b_bias=0 / direct=3 / weightb=1 / open_gop=0 / weightp=2 / keyint=250 / keyint_min=25 / scenecut=40 / intra_refresh=0 / rc_lookahead=40 / rc=2pass / mbtree=1 / bitrate=2059 / ratetol=1.0 / qcomp=0.60 / qpmin=10 / qpmax=51 / qpstep=4 / cplxblur=20.0 / qblur=0.5 / ip_ratio=1.40 / aq=1:1.00
Default : Yes
Forced : No

Audio
ID : 2
Format : MPEG Audio
Format version : Version 1
Format profile : Layer 3
Mode : Joint stereo
Codec ID : A_MPEG/L3
Codec ID/Hint : MP3
Duration : 24mn 47s
Bit rate mode : Constant
Bit rate : 192 Kbps
Channel(s) : 2 channels
Sampling rate : 44.1 KHz
Compression mode : Lossy
Stream size : 34.1 MiB (9%)
Writing library : LAME3.99r
Encoding settings : -m j -V 4 -q 3 -lowpass 18.6 -b 192
Default : Yes
Forced : No
скриншот   скриншот   скриншот   скриншот   скриншот   скриншот   скриншот   скриншот  
Добавлена 20 серия. 1 сезон закрыт.pb.wtf



Скачать Два отца и два сына через торрент http://i6.imageban.ru/out/2013/11/14/b2696dbfcc1690940307b37bc42bb3ea.png Скачать фильм Два отца и два сына через торрент бесплантно в хорошем качестве Описание: Павел Гуров - успешный актер, звезда телевизионного сериала «Майор Лавров». В жизни Гуров состоявшийся человек, состоятельный ... 9.6 10 51
Info! Золотая раздача, скачанное не засчитывается.
Торрент: Зарегистрирован [2013-11-26 04:15] · скачан: 1 455 раз
Статус: √ проверено
Размер: 7.8 GB
Как cкачать? Как скачать Два отца и два сына через торрент | qTorrent

% Раздел Тема Автор DL S | L
Наши сериалы [ 9.11 GB ] Два отца и два сына / Сезон: 2 / серии 1-20 из 20 [2014 Россия WEB-DL 720p] Alex921 Скачать
1 | 0
Наши сериалы [ 17.43 GB ] Два отца и два сына / Сезон: 3 / Серии 1-20 из 20 [2016 Россия WEB-DL 1080p] GEKADOL Скачать
1 | 0
Наши сериалы [ 6.13 GB ] Два отца и два сына / Сезон: 3 / Серии 1-20 из 20 [2016 Россия SATRip] GEKADOL Скачать
1 | 0
Наши сериалы [ 6.85 GB ] Два отца и два сына / Сезон: 2 / серии 1-20 из 20 [ 2014 Россия WEB-DLRip] GEKADOL Скачать
1 | 0


Последний раз редактировалось: лисяра (2013-11-27 07:47), всего редактировалось 6 раз(а)

28-11-2019 20:33  

Отключить всю рекламу на сайте

15-11-2013 21:22 Два отца и два сына Скачать торрент  

Слушай, а не плохой сериал. Я как-то пару раз по телеку заставал, но чет не торкнуло. А с самого начала зачет! Ну и Нагиев просто душка))))pb.wtf



26-11-2013 13:44 Два отца и два сына Скачать торрент  

Жалкая копия "2 с половиной челоека" с Чарли Шином.Ничего своего придумать не могут. :rofle:pb.wtf



26-11-2013 22:19 Два отца и два сына Скачать торрент  

А чего выкладываешь не день в день? Надоело уже выискивать в инете свежак!

+++++++++++++++++++++++++
А на счет жалкой пародии на 2,5 человека, я бы не сравнивал эти сериалы. Разные, если не сказать абсолютно разные.
И умора в нашем то поболее будет. Смешнее наш!pb.wtf



08-09-2016 19:00 Два отца и два сына Скачать торрент  

Посмотрю)pb.wtf



    Дорогой пользователь! Огромная просьба, поблагодарите релизера, оцените раздачу и оставьте свои комментарий, если Вы скачали Два отца и два сына через торрент бесплатно! Внесите свою лепту в развитие PiratBit!
    Комментировать посты могут только пользователи прошедшие не сложную регистрацию
    Показать сообщения:    

    Два отца и два сына через торрент
    Скачать бесплатно Два отца и два сына
    Два отца и два сына скачать торрент
    Два отца и два сына смотреть онлайн
    Cкачать фильм Два отца и два сына бесплатно
    Два отца и два сына скачать торрент в хорошем качестве
    Два отца и два сына смотреть онлайн бесплатно в хорошем качестве


    Вы не можете начинать темы
    Вы не можете отвечать на сообщения
    Вы не можете редактировать свои сообщения
    Вы не можете удалять свои сообщения
    Вы не можете голосовать в опросах
    Вы не можете прикреплять файлы к сообщениям
    Вы можете скачивать файлы