Ссылка на приватное зеркало нашего сайта всего за 1$. Внимание количество ограничено!!!

2 сезон

iTunes

1 сезон

1

2 сезон

2 сезон

iTunes

1 сезон

RePack

30

Новинка

ВАЖНО

ИГРА 18+

pack

RePack

MK11
pack

Забери бонус

RePack

jed

!!Акция!!

Alien_Rage

RePack

fifa19

RePack

Assassins Creed: Odyssey

RePack

NEED FOR SPEED™ PAYBACK

4 сезон

9 сезон

Бесстыжие 9 сезон

Все сериалы

все сериалы на PB.wtf

RePack

FAR CRY 5
  

Хайтарма / Haytarma (Ахтем Сейтаблаев) [2013, Украина / ATR, драма, военный, история, DVDRip] pb.wtf

Хайтарма через торрент pb.wtf

Размер: 1.45 GB | Добавлен: 6 лет 4 мес. назад | Торрент скачан:394 раза
Скачать  

18-06-2013 14:50 Хайтарма Скачать торрент  

Хайтарма / Haytarma
«История одного народа»

Год выпуска: 2013
Страна: Украина
Жанр:драма, военный, история
Продолжительность:01:27:30
Перевод:Не требуется
Режиссер:Ахтем Сейтаблаев

  • В ролях:

    Ахтем Сейтаблаев (Аметхан Султан), Алексей Горбунов, Усние Халилова, Андрей Мостренко, Андрей Саминин (Вовк), Валерий Шитовалов, Юрий Цурило, Леся Самаева (русская соседка), Алексей Тритенко, Дмитрий Суржиков, Динара Аваз

  • Описание:
    Фильм рассказывает о трагической дате в истории крымскотатарского народа - 18 мая 1944 года - сталинской депортации крымских татар. В центре сюжета фильма - летчик, дважды герой Советского Союза, Аметхан Султан. В мае 44-го года после осовобождения Севастополя Аметхан отправляется в отпуск в родную Алупку. На его глазах 18 мая и начинается депортация крымских татар.

  • Мировая премьера:18 мая 2013


      Качество: DVDRip
      Формат:AVI
      Видео кодек: XviD
      Аудио кодек:AC3
      Видео: 720x400 (16:9), 1981 kbps, 25 fps
      Аудио: 5.1/ 48 kHz/ 384 kbps/ AC3


    Код:

    General
    Complete name                            : D:\Торенты\Haytarma.2013.O.DVDRip.FilmRus.avi
    Format                                   : AVI
    Format/Info                              : Audio Video Interleave
    File size                                : 1.45 GiB
    Duration                                 : 1h 27mn
    Overall bit rate                         : 2 375 Kbps
    Writing application                      : VirtualDubMod 1.5.10.3 | www.virtualdub-fr.org || (build 2550/release)
    Writing library                          : VirtualDubMod build 2550/release

    Video
    ID                                       : 0
    Format                                   : MPEG-4 Visual
    Format profile                           : Advanced Simple@L5
    Format settings, BVOP                    : 2
    Format settings, QPel                    : No
    Format settings, GMC                     : No warppoints
    Format settings, Matrix                  : Default (H.263)
    Codec ID                                 : XVID
    Codec ID/Hint                            : XviD
    Duration                                 : 1h 27mn
    Bit rate                                 : 1 982 Kbps
    Width                                    : 720 pixels
    Height                                   : 400 pixels
    Display aspect ratio                     : 16:9
    Frame rate                               : 25.000 fps
    Color space                              : YUV
    Chroma subsampling                       : 4:2:0
    Bit depth                                : 8 bits
    Scan type                                : Progressive
    Compression mode                         : Lossy
    Bits/(Pixel*Frame)                       : 0.275
    Stream size                              : 1.21 GiB (83%)
    Writing library                          : XviD 64

    Audio
    ID                                       : 1
    Format                                   : AC-3
    Format/Info                              : Audio Coding 3
    Mode extension                           : CM (complete main)
    Codec ID                                 : 2000
    Duration                                 : 1h 27mn
    Bit rate mode                            : Constant
    Bit rate                                 : 384 Kbps
    Channel(s)                               : 6 channels
    Channel positions                        : Front: L C R, Side: L R, LFE
    Sampling rate                            : 48.0 KHz
    Bit depth                                : 16 bits
    Compression mode                         : Lossy
    Stream size                              : 240 MiB (16%)
    Alignment                                : Split accross interleaves
    Interleave, duration                     : 40 ms (1.00 video frame)
    Interleave, preload duration             : 500 ms

    Скриншоты:

    Каталог Новинок (Фильмы-трейлеры, Игры, Сериалы, Мультфильмы)

    © Оформление by Raven
    pb.wtf



  • Скачать Хайтарма через торрент http://i68.fastpic.ru/big/2014/0717/13/7215ed54a9db5bfc5947ab478ebda013.jpg Скачать фильм Хайтарма через торрент бесплантно в хорошем качестве Описание:Фильм рассказывает о трагической дате в истории крымскотатарского народа - 18 мая 1944 года - сталинской депортации крымских ... 9.2 10 57
    Info! Золотая раздача, скачанное не засчитывается.
    Торрент: Зарегистрирован [2014-07-17 02:40] · скачан: 394 раз
    Статус: √ проверено
    Размер: 1.45 GB
    Как cкачать? Как скачать Хайтарма через торрент | qTorrent

    % Раздел Тема Автор DL S | L
    Наши фильмы (DVD фильмы) [ 3.21 GB ] Хайтарма / Haytarma [2013 военный история DVD5] R5 voovaz Скачать
    1 | 0


    Последний раз редактировалось: Ворон (2014-07-17 02:49), всего редактировалось 2 раз(а)

    28-11-2019 20:33  

    Отключить всю рекламу на сайте

    18-06-2013 20:04 Хайтарма Скачать торрент  

    Много споров вокруг этого фильма.Значит надо смотреть!

    Выложившему большое спасибо!pb.wtf



    18-06-2013 23:04 Хайтарма Скачать торрент  

    Да и вот за такой произвол ... на войне наши деды отдавали свои жизни ... Сильный фильм ,на много сильней чем любая снятая "Янки" параша которой они в последние годы кормят наш и так морально разлагающийся народ, в котором не осталось не патриотизма, не чести, не гордости, где каждый сам за себя и не важно будь то, Крым, Украина,Россия ... все мы для них дерьмо, без Истории. Спасибо за фильм, очень тяжело и обидно по человечески за такие Исторические свершения.pb.wtf



    22-06-2013 09:41 Хайтарма Скачать торрент  

    Фильм отличнейший, НКВДешники хуже всяких немцев выставлены. Хороший исторический фильм.pb.wtf



    22-06-2013 10:59 Хайтарма Скачать торрент  

    спасибо! очень сильный и нужный фильм! а сажать сейчас нацистов надо, в том числе и из крымаpb.wtf



    21-08-2013 19:29 Хайтарма Скачать торрент  

    ну наконец то я его нашел. спасибо большое!pb.wtf



    14-11-2013 15:50 Хайтарма Скачать торрент  

    так же передаю привет из Крыма))pb.wtf



    14-11-2013 16:05 Хайтарма Скачать торрент  

    Посмотрим...pb.wtf



    02-04-2014 21:10 Хайтарма Скачать торрент  

    Тяжелый фильм!pb.wtf



      Дорогой пользователь! Огромная просьба, поблагодарите релизера, оцените раздачу и оставьте свои комментарий, если Вы скачали Хайтарма через торрент бесплатно! Внесите свою лепту в развитие PiratBit!
      Комментировать посты могут только пользователи прошедшие не сложную регистрацию
      Показать сообщения:    

      Хайтарма через торрент
      Скачать бесплатно Хайтарма
      Хайтарма скачать торрент
      Хайтарма смотреть онлайн
      Cкачать фильм Хайтарма бесплатно
      Хайтарма скачать торрент в хорошем качестве
      Хайтарма смотреть онлайн бесплатно в хорошем качестве


      Вы не можете начинать темы
      Вы не можете отвечать на сообщения
      Вы не можете редактировать свои сообщения
      Вы не можете удалять свои сообщения
      Вы не можете голосовать в опросах
      Вы не можете прикреплять файлы к сообщениям
      Вы можете скачивать файлы