1 сезон

3 сезон

iTunes

1

iTunes

MVO

iTunes

13

1 сезон

RePack

30

Deluxe

pack

Лицензия

ВАЖНО

ИГРА 18+

pack

RePack

MK11

RePack

jed

RePack

fifa19

RePack

RDR2

RePack

NEED FOR SPEED™ PAYBACK

4 сезон

9 сезон

Бесстыжие 9 сезон

Все сериалы

все сериалы на PB.wtf

RePack

FAR CRY 5

Anonymous, добрый вечер, мы катастрофически не успеваем собрать деньги на оплату серверов, помогите нам пожалуйста 5,10,15р., для нас важна любая помощь . В качестве благодарности мы отключим Вам всю рекламу на сайте (укажите свой ник в строку Ваше имя)!

×
  
Magnet ссылка

Философы: Урок выживания / The Philosophers (Джон Хаддлс / John Huddles) [2013, фантастика, триллер, DVD9] R5 pb.wtf

Философы: Урок выживания через торрент pb.wtf

Размер: 6.93 GB | Добавлен: 7 лет 8 мес. назад | Торрент скачан:253 раза
Скачать  

14-11-2013 18:35 Философы: Урок выживания Скачать торрент  


Философы: Урок выживания / The Philosophers
«Умереть, чтобы выжить»
Страна: США, Индонезия
Студия: An Olive Branch Productions, SCTV
Жанр: фантастика, триллер
Год выпуска: 2013
Мировая премьера: 21 августа 2013
Российская премьера: 10 октября 2013
Дата выхода DVD: 12 ноября 2013
Продолжительность: 01:42:24
Перевод: Профессиональный (дублированный) [Лицензия]
Cубтитры: нет
Оригинальная аудиодорожка: нет
Режиссер: Джон Хаддлс / John Huddles
В ролях: Софи Лоу, Джеймс Д’Арси, Риз Уэйкфилд, Дэрил Сабара, Бонни Райт, Кэти Финдлей, Фредди Строма, Хоуп Олэйд Уилсон, Абхи Синха, Джейкоб Артист...
Описание: В международной школе в Джакарте таинственный учитель философии в качестве выпускного экзамена предлагает 20 студентам провести эксперимент. Этот опыт будет самым экстремальным, с которым они когда-либо сталкивались.
Используя только силу логики, студенты должны выбрать, кто из них будет достоин получить место в подземном бункере — единственном месте, где можно спастись от приближающейся ядерной катастрофы. Бункер рассчитан на десять человек, а значит, тех, кого не выбирают, ожидает жестокая смерть. Реальность классной комнаты эффектно перетекает в воображаемый, но в то же время пугающий мир надвигающегося апокалипсиса…

Бонусы: нет

Релиз группы:
Качество: DVD9 R5
Формат: DVD-Video
Видео кодек: MPEG2
Аудио кодек: AC3
Видео: PAL 16:9 (720x576(0.858)) MPEG Video, 25,000 кадр/сек, 8900 Кбит/сек
Аудио: Russian (Dolby AC3, 6 ch) 448 Кбит/сек, 48,0 КГц



Title: Filosofy.Urok.vyjivaniya.2013.DVD9
Size: 6.93 Gb ( 7 263 858,00 KBytes ) - DVD-9
Enabled regions: 1, 2, 3, 4, 5, 6, 7, 8

VTS_01 :
Play Length: 01:42:24
Video: PAL 16:9 (720x576) VBR, Auto Letterboxed
Audio:
Russian (Dolby AC3, 6 ch)

* Menus Information *

VIDEO_TS Menu
Video:
PAL 16:9 (720x576) VBR
Auto Letterboxed
Audio:
Not specified (Dolby AC3, 2 ch)
Russian Language Unit :
Title Menu

VTS_01 Menu
Video:
PAL 16:9 (720x576) VBR
Auto Letterboxed
Audio:
Not specified (Dolby AC3, 2 ch)
Russian Language Unit :
Root Menu
Общее
Полное имя : F:Новинки 2013Filosofy.Urok.vyjivaniya.2013.DVD9VIDEO_TSVTS_01_1.VOB
Формат : MPEG-PS
Размер файла : 1024 Мбайт
Продолжительность : 15 м.
Общий поток : 9495 Кбит/сек

Видео
Идентификатор : 224 (0xE0)
Формат : MPEG Video
Версия формата : Version 2
Профиль формата : Main@Main
Параметр BVOP формата : Да
Параметр матрицы формата : Выборочная
Параметр GOP формата : Variable
Продолжительность : 15 м.
Битрейт : 8900 Кбит/сек
Ширина : 720 пикселей
Высота : 576 пикселей
Соотношение сторон : 16:9
Частота кадров : 25,000 кадров/сек
Стандарт вещания : PAL
Цветовое пространство : YUV
Субдискретизация насыщенности : 4:2:0
Битовая глубина : 8 бит
Тип развёртки : Чересстрочная
Порядок развёртки : Верхнее поле первое
Метод сжатия : С потерями
Бит/(Пиксели*Кадры) : 0.858
Временной код первого кадра : 00:00:00:00
Оригинал временного кода : Group of pictures header
Размер потока : 955 Мбайт (93%)

Аудио
Идентификатор : 189 (0xBD)-128 (0x80)
Формат : AC-3
Формат/Информация : Audio Coding 3
Расширение режима : CM (complete main)
Параметр Endianness формата : Big
Режим смешивания : DVD-Video
Продолжительность : 15 м.
Вид битрейта : Постоянный
Битрейт : 448 Кбит/сек
Каналы : 6 каналов
Расположение каналов : Front: L C R, Side: L R, LFE
Частота : 48,0 КГц
Битовая глубина : 16 бит
Метод сжатия : С потерями
Размер потока : 48,3 Мбайт (5%)










pb.wtf



Скачать Философы: Урок выживания через торрент http://i58.fastpic.ru/big/2013/1113/88/16b23a0aa0d99ccf0d9fb9d3337f9788.jpg Скачать фильм Философы: Урок выживания через торрент бесплантно в хорошем качестве Описание: В международной школе в Джакарте таинственный учитель философии в качестве выпускного экзамена предлагает 20 студентам провести ... 9.4 10 11
Info! Золотая раздача, скачанное не засчитывается.
Торрент: Зарегистрирован [2013-11-14 18:35] · скачан: 253 раз
Статус: √ проверено
Размер: 6.93 GB
Как cкачать? Как скачать Философы: Урок выживания через торрент | UTorrent

28-11-2019 20:33  

Отключить всю рекламу на сайте

14-11-2013 18:55 Философы: Урок выживания Скачать торрент  

Фильм сам себе не плохой, но одноразовый, второй раз не захочешь пересматривать... pb.wtf



14-11-2013 19:05 Философы: Урок выживания Скачать торрент  

фильм полная ватаpb.wtf



27-11-2013 19:24 Философы: Урок выживания Скачать торрент  

Очень трудно представить себе зрителя этой картины, в 15 лет еще скучно смотреть такое, а в 16 лет - уже поздно. Школьный урок химии по смешиванию философии и наивности с получением пресной воды.pb.wtf



    Дорогой пользователь! Огромная просьба, поблагодарите релизера, оцените раздачу и оставьте свои комментарий, если Вы скачали Философы: Урок выживания через торрент бесплатно! Внесите свою лепту в развитие PiratBit!
    Комментировать посты могут только пользователи прошедшие не сложную регистрацию
    Показать сообщения:    

    Философы: Урок выживания через торрент
    Скачать бесплатно Философы: Урок выживания
    Философы: Урок выживания скачать торрент
    Философы: Урок выживания смотреть онлайн
    Cкачать фильм Философы: Урок выживания бесплатно
    Философы: Урок выживания скачать торрент в хорошем качестве
    Философы: Урок выживания смотреть онлайн бесплатно в хорошем качестве


    Вы не можете начинать темы
    Вы не можете отвечать на сообщения
    Вы не можете редактировать свои сообщения
    Вы не можете удалять свои сообщения
    Вы не можете голосовать в опросах
    Вы не можете прикреплять файлы к сообщениям
    Вы можете скачивать файлы