2 сезон

iTunes

1 сезон

1

iTunes

iTunes

iTunes

1 сезон

RePack

30

ИГРА 18+

pack

ВАЖНО

!!Акция!!

Alien_RageХит недели

RePack

MK11
pack

Забери бонус

RePack

jed

!!Акция!!

Alien_Rage

RePack

fifa19

RePack

Assassins Creed: Odyssey

RePack

NEED FOR SPEED™ PAYBACK

4 сезон

9 сезон

Бесстыжие 9 сезон

Все сериалы

все сериалы на PB.wtf

RePack

FAR CRY 5
  

Лимб / Haunter (Винченцо Натали) [2013 г., Ужасы, Триллер, Детектив, BDRip 720p, Дублированный (Лицензия)] pb.wtf

Лимб через торрент pb.wtf

Размер: 3.77 GB | Добавлен: 6 лет 11 мес. назад | Торрент скачан:221 раз
Скачать  

14-11-2013 19:38 Лимб Скачать торрент  

Лимб / Haunter
Информация:
Год выпуска: 2013
Страна: Канада, Франция
Жанр: Ужасы, Триллер, Детектив
Продолжительность: 01:36:53
Перевод: Дублированный (Лицензия)
Режиссер: Винченцо Натали
В ролях: Эбигейл Бреслин, Питер Аутербридж, Мишель Нолден, Стивен МакХэтти, Питер ДаКуна, Элинор Цихи, Дэвид Нолл, Саманта Вайнштейн, Дэвид Хьюлетт, Сара Мэннинен.
Описание:
На первый взгляд, Лиза с её младшим братом и родителями — совершенно обыкновенная семья, ведущая спокойную, размеренную жизнь. Но никто, кроме девочки, не подозревает, что они проживают один и тот же день уже не в первый раз...
Тех.Данные:
Качество: BDRip 720p | BRemux 1080p | Автор рипа: XLASER
Формат: MKV
Видео кодек: AVC
Аудио кодек: AC3
Видео: AVC at 5300 Кбит/сек 1280 x 720 (1.778) at 24.000 fps
Аудио: AC-3 at 384 Кбит/сек 6 каналов, 48,0 КГц


Код:

Формат                                   : Matroska
Версия формата                           : Version 2
Размер файла                             : 3,77 Гбайт
Продолжительность                        : 1 ч. 36 м.
Общий поток                              : 5577 Кбит/сек
Дата кодирования                         : UTC 2013-10-29 17:32:53
Программа кодирования                    : XviD4PSP 6.0 / 54.29.105
Библиотека кодирования                   : XviD4PSP 6.0 / 54.29.105

Видео
Идентификатор                            : 1
Формат                                   : AVC
Формат/Информация                        : Advanced Video Codec
Профиль формата                          : High@L4.1
Параметр CABAC формата                   : Да
Параметр ReFrames формата                : 3 кадра
Идентификатор кодека                     : V_MPEG4/ISO/AVC
Продолжительность                        : 1 ч. 36 м.
Битрейт                                  : 5300 Кбит/сек
Ширина                                   : 1280 пикселей
Высота                                   : 720 пикселей
Соотношение сторон                       : 16:9
Режим частоты кадров                     : Постоянный
Частота кадров                           : 24,000 кадра/сек
Цветовое пространство                    : YUV
Субдискретизация насыщенности            : 4:2:0
Битовая глубина                          : 8 бит
Тип развёртки                            : Прогрессивная
Бит/(Пиксели*Кадры)                      : 0.240
Размер потока                            : 3,44 Гбайт (91%)
Библиотека кодирования                   : x264 core 128 r2216M 198a7ea
Настройки программы                      : cabac=1 / ref=3 / deblock=1:0:0 / analyse=0x3:0x133 / me=dia / subme=5 / psy=1 / psy_rd=1.00:0.20 / mixed_ref=1 / me_range=16 / chroma_me=1 / trellis=0 / 8x8dct=1 / cqm=0 / deadzone=21,11 / fast_pskip=1 / chroma_qp_offset=0 / threads=3 / lookahead_threads=1 / sliced_threads=0 / nr=0 / decimate=1 / interlaced=0 / bluray_compat=0 / constrained_intra=0 / bframes=3 / b_pyramid=1 / b_adapt=0 / b_bias=0 / direct=3 / weightb=1 / open_gop=0 / weightp=0 / keyint=240 / keyint_min=24 / scenecut=40 / intra_refresh=0 / rc_lookahead=40 / rc=abr / mbtree=1 / bitrate=5300 / ratetol=1.0 / qcomp=0.60 / qpmin=10 / qpmax=51 / qpstep=4 / ip_ratio=1.40 / aq=1:1.00
Default                                  : Да
Forced                                   : Нет

Аудио
Идентификатор                            : 2
Формат                                   : AC-3
Формат/Информация                        : Audio Coding 3
Расширение режима                        : CM (complete main)
Параметр Endianness формата              : Big
Идентификатор кодека                     : A_AC3
Продолжительность                        : 1 ч. 36 м.
Вид битрейта                             : Постоянный
Битрейт                                  : 384 Кбит/сек
Каналы                                   : 6 каналов
Расположение каналов                     : Front: L C R, Side: L R, LFE
Частота                                  : 48,0 КГц
Битовая глубина                          : 16 бит
Метод сжатия                             : С потерями
Задержка видео                           : 27 мс.
Размер потока                            : 266 Мбайт (7%)
Язык                                     : Russian
Default                                  : Да
Forced                                   : Нет


скриншот   скриншот   скриншот   скриншот   скриншот  
pb.wtf



Скачать Лимб через торрент http://pic.kartinco.top/images/6/yjg6l.jpg Скачать фильм Лимб через торрент бесплантно в хорошем качестве Описание: На первый взгляд, Лиза с её младшим братом и родителями — совершенно обыкновенная семья, ведущая спокойную, размеренную жизнь. ... 10 10 15
Info! Золотая раздача, скачанное не засчитывается.
Торрент: Зарегистрирован [2013-11-14 19:38] · скачан: 221 раз
Статус: √ проверено
Размер: 3.77 GB
Как cкачать? Как скачать Лимб через торрент | qTorrent

% Раздел Тема Автор DL S | L
Фильмы [HD 720p, 1080p] (Хороший звук DUB, MVO) [ 6.07 GB ] Лимб / Haunter [2013 BDRip 1080p ()] XLASER Скачать
1 | 0
Фильмы [HD 720p, 1080p] (Хороший звук DUB, MVO) [ 2.39 GB ] Лимб / Haunter [2013 BDRip 720p ] от DHT-Movies Dean24 Скачать
1 | 0
Фильмы 2013 [DVDrip, WEB-DLRip, HDrip] [ 745 MB ] Лимб / Haunter [2013 BDRip-AVC от sokol_ok] Dub sokol_ok Скачать
2 | 0
Фильмы 2013 [DVDrip, WEB-DLRip, HDrip] [ 1.45 GB ] Лимб / Haunter [2013 BDRip-AVC от sokol_ok] Dub sokol_ok Скачать
2 | 0
Фильмы 2013 [DVDrip, WEB-DLRip, HDrip] [ 705 MB ] Лимб / Haunter [2013 HDRip ] coc900 Скачать
1 | 0
Фильмы 2013 [DVDrip, WEB-DLRip, HDrip] [ 1.37 GB ] Лимб / Haunter [2013 DVDRip ] MihailHD Скачать
1 | 0
Фильмы 2013 [DVDrip, WEB-DLRip, HDrip] [ 1.46 GB ] Лимб / Haunter [2013 DVDRip ] WISE Скачать
1 | 0

28-11-2019 20:33  

Отключить всю рекламу на сайте

    Дорогой пользователь! Огромная просьба, поблагодарите релизера, оцените раздачу и оставьте свои комментарий, если Вы скачали Лимб через торрент бесплатно! Внесите свою лепту в развитие PiratBit!
    Комментировать посты могут только пользователи прошедшие не сложную регистрацию
    Показать сообщения:    

    Лимб через торрент
    Скачать бесплатно Лимб
    Лимб скачать торрент
    Лимб смотреть онлайн
    Cкачать фильм Лимб бесплатно
    Лимб скачать торрент в хорошем качестве
    Лимб смотреть онлайн бесплатно в хорошем качестве


    Вы не можете начинать темы
    Вы не можете отвечать на сообщения
    Вы не можете редактировать свои сообщения
    Вы не можете удалять свои сообщения
    Вы не можете голосовать в опросах
    Вы не можете прикреплять файлы к сообщениям
    Вы можете скачивать файлы