2 сезон

iTunes

MVO

1

2 сезон

iTunes

iTunes

1 сезон

RePack

30

Ultimate

ВАЖНО

ИГРА 18+

pack

RePack

MK11
pack

Легкие деньги

RePack

jed

RePack

fifa19

RePack

RDR2

RePack

NEED FOR SPEED™ PAYBACK

4 сезон

9 сезон

Бесстыжие 9 сезон

Все сериалы

все сериалы на PB.wtf

RePack

FAR CRY 5

Anonymous, доброй ночи, мы не успеваем собрать деньги на оплату серверов за декабрь и январь, помогите нам пожалуйста в это трудное время. В качестве благодарности мы отключим Вам всю рекламу на сайте (укажите свой ник в строку Ваше имя)!

×
  
Magnet ссылка

11.6 / 11.6 (Филипп Годо) [2013 г., триллер, HDRip, Профессиональный многоголосый][НТВ+] pb.wtf

11.6 через торрент pb.wtf

Размер: 1.37 GB | Добавлен: 7 лет 2 мес. назад | Торрент скачан:1613 раз
Скачать  

15-11-2013 00:03 11.6 Скачать торрент  

11.6 / 11.6
Год выпуска: 2013
Страна: Франция
Жанр: триллер,
Продолжительность: 01:41:45
Перевод: Профессиональный многоголосый[НТВ+]

Режиссер: Филипп Годо
Продюссер: Филипп Годо
Сценарий: Филипп Годо, Аньес де Саси, Алис Жеро-Арфи

Премьера в мире: 3 апреля 2013

IMDB 5.90 (280)


В ролях: Франсуа Клюзе, Боли Ланнерс, Корина Масьеро, Хуана Акоста, Жоан Либеро, Мирей Франчино, Стефан Войтович, Жан-Клод Лека, Эрик Бернард, Карим Леклу,

Описание: Тони мягко нажимает на педаль газа в своем бронированном фургоне. У него за спиной 11,6 миллиона евро! За несколько дней безвестный охранник становится самым известным человеком в стране. Газеты и телевидение сходят с ума, рассказывая о совершенном ограблении века. Это его месть за унижения, которые он терпел годами от своего босса и системы.

Качество: HDRip
Формат: AVI
Видео кодек: XviD
Аудио кодек: AC3
Видео: MPEG4, XviD, 720x304 (2.35:1), 23.976 fps, 1 723 Kbps (0.328 bit/pixel)
Аудио#1: AC-3, 48.0 KHz, 2 ch, 192 Kbps, CBR
скриншот   скриншот   скриншот  

Общее
Полное имя : D:ТорентыOdinadcatj.6.2013.P.HDRip.avi
Формат : AVI
Формат/Информация : Audio Video Interleave
Размер файла : 1,37 Гбайт
Продолжительность : 1 ч. 41 м.
Общий поток : 1924 Кбит/сек
Программа кодирования : VirtualDubMod 1.5.10.2 (build 2540/release)
Библиотека кодирования : VirtualDubMod build 2540/release

Видео
Идентификатор : 0
Формат : MPEG-4 Visual
Профиль формата : Advanced Simple@L5
Параметр BVOP формата : 2
Параметр QPel формата : Нет
Параметр GMC формата : Без точки перехода
Параметр матрицы формата : Default (MPEG)
Идентификатор кодека : XVID
Идентификатор кодека/Подсказка : XviD
Продолжительность : 1 ч. 41 м.
Битрейт : 1723 Кбит/сек
Ширина : 720 пикселей
Высота : 304 пикселя
Соотношение сторон : 2,35:1
Частота кадров : 23,976 кадра/сек
Цветовое пространство : YUV
Субдискретизация насыщенности : 4:2:0
Битовая глубина : 8 бит
Тип развёртки : Прогрессивная
Метод сжатия : С потерями
Бит/(Пиксели*Кадры) : 0.328
Размер потока : 1,22 Гбайт (90%)
Библиотека кодирования : XviD 1.2.1 (UTC 2008-12-04)

Аудио
Идентификатор : 1
Формат : AC-3
Формат/Информация : Audio Coding 3
Расширение режима : CM (complete main)
Параметр Endianness формата : Big
Идентификатор кодека : 2000
Продолжительность : 1 ч. 41 м.
Вид битрейта : Постоянный
Битрейт : 192 Кбит/сек
Каналы : 2 канала
Расположение каналов : Front: L R
Частота : 48,0 КГц
Битовая глубина : 16 бит
Метод сжатия : С потерями
Размер потока : 140 Мбайт (10%)
Выравнивание : Разделение по промежуткам
Продолжительность промежутка : 42 мс. (1,00 видеокадр)
Время предзагрузки промежутка : 500 мс.


11.6 скачать торрент


pb.wtf



Скачать 11.6 через торрент http://i60.fastpic.ru/big/2013/1114/15/972f6045484a0d23cb4752216864d115.jpg Скачать фильм 11.6 через торрент бесплантно в хорошем качестве Описание: Тони мягко нажимает на педаль газа в своем бронированном фургоне. У него за спиной 11,6 миллиона евро! За несколько дней ... 9.4 10 41
Info! Золотая раздача, скачанное не засчитывается.
Торрент: Зарегистрирован [2013-11-15 00:03] · скачан: 1 613 раз
Статус: √ проверено
Размер: 1.37 GB
Как cкачать? Как скачать 11.6 через торрент | UTorrent

% Раздел Тема Автор DL S | L
Старые игры [ 409 MB ] Counter-Strike 1.6 Real Edition 2011 [ПираткаENG/RUAction] Chernishevsky Скачать
2 | 0
Редакторы видео [ 4.31 GB ] Grass Valley EDIUS 6.02 Full ENG + RUS + Content [2011] Trovel Скачать
1 | 0
Паки полных порно фильмов [ 22.45 GB ] Большие Сиськи Босса 1 3-6 8-15 / Big Tits Boss 1 3-6 8-15 [2008-2011 г Gonzo Big Tits DVDRip] smaster Скачать
1 | 0
Работа с носителями информации [ 1.05 GB ] Nero 9.4.44.0b + Nero Move it 1.5.10.1 + Nero MediaHome 4.5.8.0b + Templates + Nero InCD 6.6.5100 + LightScribe Software [Release: 03.03.2011] [Multi] «anfis_chekho Скачать
1 | 0
Мультсериалы [ 13.36 GB ] Весь Лунтик : шесть сезонов 380 серий без заставок и титров [2006-2011 DVDRip] ACFIORENTINA Скачать
2 | 0
Разное (Системные программы под Windows) [ 10 MB ] Auto Hide IP 5.1.5.6 + Portable [2011] Timberwolf Скачать
1 | 0
Редакторы видео [ 34 MB ] Xilisoft Video Converter Ultimate 6.7.0 build 0913 2011 [Multi / Rus] Ruvest Скачать
1 | 0


Последний раз редактировалось: Ворон (2013-11-16 18:53), всего редактировалось 1 раз

28-11-2019 20:33  

Отключить всю рекламу на сайте

15-11-2013 05:31 11.6 Скачать торрент  

Куда он дел деньги?pb.wtf



15-11-2013 12:42 11.6 Скачать торрент  

neputinvv писал(а):

Куда он дел деньги?

это художественный фильм, не принимайте события реально :rofle: pb.wtf



15-11-2013 15:25 11.6 Скачать торрент  

почему он их украл мягко нажимая на педаль?pb.wtf



16-11-2013 18:11 11.6 Скачать торрент  

Бюджет: 3 апреля 2013
Шикарный бюджет)))pb.wtf



17-11-2013 13:46 11.6 Скачать торрент  

Ну а фильм-то как?pb.wtf



    Дорогой пользователь! Огромная просьба, поблагодарите релизера, оцените раздачу и оставьте свои комментарий, если Вы скачали 11.6 через торрент бесплатно! Внесите свою лепту в развитие PiratBit!
    Комментировать посты могут только пользователи прошедшие не сложную регистрацию
    Показать сообщения:    

    11.6 через торрент
    Скачать бесплатно 11.6
    11.6 скачать торрент
    11.6 смотреть онлайн
    Cкачать фильм 11.6 бесплатно
    11.6 скачать торрент в хорошем качестве
    11.6 смотреть онлайн бесплатно в хорошем качестве


    Вы не можете начинать темы
    Вы не можете отвечать на сообщения
    Вы не можете редактировать свои сообщения
    Вы не можете удалять свои сообщения
    Вы не можете голосовать в опросах
    Вы не можете прикреплять файлы к сообщениям
    Вы можете скачивать файлы