2 сезон

iTunes

1 сезон

1

iTunes

iTunes

iTunes

1 сезон

RePack

30

ИГРА 18+

pack

ВАЖНО

!!Акция!!

Alien_RageХит недели

RePack

MK11
pack

Забери бонус

RePack

jed

!!Акция!!

Alien_Rage

RePack

fifa19

RePack

Assassins Creed: Odyssey

RePack

NEED FOR SPEED™ PAYBACK

4 сезон

9 сезон

Бесстыжие 9 сезон

Все сериалы

все сериалы на PB.wtf

RePack

FAR CRY 5
  

Пираты Карибского моря: Сундук мертвеца / Pirates of the Caribbean: Dead Man's Chest (Гор Вербински) [2006 г., фэнтези, боевик, приключения, BDRip 1080p, Дубляж + Оригинал] pb.wtf

Пираты Карибского моря: Сундук мертвеца через торрент pb.wtf

Размер: 7.76 GB | Добавлен: 6 лет 11 мес. назад | Торрент скачан:782 раза
Скачать  

15-11-2013 19:52 Пираты Карибского моря: Сундук мертвеца Скачать торрент  

Пираты Карибского моря: Сундук мертвеца / Pirates of the Caribbean: Dead Man's Chest
Год выпуска: 2006
Страна: США
Жанр: фэнтези, боевик, приключения,
Продолжительность: 02:30:40
Перевод: Дубляж + Оригинал
Субтитры: русские,английские

Режиссер: Гор Вербински

В ролях: Джонни Депп, Орландо Блум, Кира Найтли, Джек Девенпорт, Билл Найи, Джонатан Прайс, Ли Аренберг, Маккензи Крук, Кевин МакНэлли, Дэвид Бэйли,

Описание: Вновь оказавшись в ирреальном мире, лихой капитан Джек Воробей неожиданно узнает, что является должником легендарного капитана «Летучего Голландца» Дэйви Джонса. Джек должен в кратчайшие сроки решить эту проблему, иначе ему грозит вечное проклятие и рабское существование после смерти. Вдобавок ко всему, срывается свадьба Уилла Тернера и Элизабет Суонн, которые вынуждены составить Джеку компанию в его злоключениях…

Качество: BDRip 1080p
Формат: MKV
Видео кодек: H.264
Аудио кодек: AC3
Видео: (1920x800), 6.096Кбит/с, 23.976 кадра/сек
Аудио#1: AC-3, 6 ch, 640 kbps (Rus) 48.0 KHz Дубляж
Аудио#2: AC-3, 6 ch, 640 kbps (Eng) 48.0 KHz Оригинал
скриншот   скриншот   скриншот  

Общее
Уникальный идентификатор : 197958845606120754349863605297756995215 (0x94ED7CA242F93256A8900CA825877E8F)
Полное имя : Пираты Карибского моря. Квадрология2. Пираты Карибского моря. Сундук мертвеца.2006.BDRip.1080p.Rus.Eng.mkv
Формат : Matroska
Версия формата : Version 2
Размер файла : 7,76 Гбайт
Продолжительность : 2 ч. 30 м.
Общий поток : 7378 Кбит/сек
Название фильма : Пираты Карибского моря: Сундук мертвеца.2006
Дата кодирования : UTC 2013-01-18 16:24:00
Программа кодирования : mkvmerge v5.8.0 ('No Sleep / Pillow') built on Sep 2 2012 15:37:04
Библиотека кодирования : libebml v1.2.3 + libmatroska v1.3.0

Видео
Идентификатор : 1
Формат : AVC
Формат/Информация : Advanced Video Codec
Профиль формата : High@L4.1
Параметр CABAC формата : Да
Параметр ReFrames формата : 5 кадров
Идентификатор кодека : V_MPEG4/ISO/AVC
Продолжительность : 2 ч. 30 м.
Битрейт : 6096 Кбит/сек
Ширина : 1920 пикселей
Высота : 800 пикселей
Соотношение сторон : 2,40:1
Режим частоты кадров : Постоянный
Частота кадров : 23,976 кадра/сек
Цветовое пространство : YUV
Субдискретизация насыщенности : 4:2:0
Битовая глубина : 8 бит
Тип развёртки : Прогрессивная
Бит/(Пиксели*Кадры) : 0.166
Размер потока : 6,26 Гбайт (81%)
Заголовок : Rip by Boriy
Библиотека кодирования : x264 core 129 r2230 1cffe9f
Настройки программы : cabac=1 / ref=5 / deblock=1:0:0 / analyse=0x3:0x113 / me=umh / subme=10 / psy=1 / psy_rd=1.00:0.10 / mixed_ref=1 / me_range=32 / chroma_me=1 / trellis=2 / 8x8dct=1 / cqm=0 / deadzone=21,11 / fast_pskip=0 / chroma_qp_offset=-2 / threads=12 / lookahead_threads=2 / sliced_threads=0 / nr=0 / decimate=0 / interlaced=0 / bluray_compat=0 / constrained_intra=0 / bframes=5 / b_pyramid=2 / b_adapt=2 / b_bias=0 / direct=3 / weightb=1 / open_gop=0 / weightp=2 / keyint=240 / keyint_min=23 / scenecut=40 / intra_refresh=0 / rc=2pass / mbtree=0 / bitrate=6096 / ratetol=1.0 / qcomp=0.60 / qpmin=0 / qpmax=69 / qpstep=4 / cplxblur=20.0 / qblur=0.5 / ip_ratio=1.40 / pb_ratio=1.30 / aq=1:0.80
Язык : English
Default : Да
Forced : Нет

Аудио #1
Идентификатор : 2
Формат : AC-3
Формат/Информация : Audio Coding 3
Расширение режима : CM (complete main)
Параметр Endianness формата : Big
Идентификатор кодека : A_AC3
Продолжительность : 2 ч. 30 м.
Вид битрейта : Постоянный
Битрейт : 640 Кбит/сек
Каналы : 6 каналов
Расположение каналов : Front: L C R, Side: L R, LFE
Частота : 48,0 КГц
Битовая глубина : 16 бит
Метод сжатия : С потерями
Размер потока : 690 Мбайт (9%)
Заголовок : Дубляж
Язык : Russian
Default : Да
Forced : Нет

Аудио #2
Идентификатор : 3
Формат : AC-3
Формат/Информация : Audio Coding 3
Расширение режима : CM (complete main)
Параметр Endianness формата : Big
Идентификатор кодека : A_AC3
Продолжительность : 2 ч. 30 м.
Вид битрейта : Постоянный
Битрейт : 640 Кбит/сек
Каналы : 6 каналов
Расположение каналов : Front: L C R, Side: L R, LFE
Частота : 48,0 КГц
Битовая глубина : 16 бит
Метод сжатия : С потерями
Размер потока : 690 Мбайт (9%)
Заголовок : Оригинал
Язык : English
Default : Нет
Forced : Нет

Текст #1
Идентификатор : 4
Формат : UTF-8
Идентификатор кодека : S_TEXT/UTF8
Идентификатор кодека/Информация : UTF-8 Plain Text
Заголовок : Forced
Язык : Russian
Default : Да
Forced : Да

Текст #2
Идентификатор : 5
Формат : UTF-8
Идентификатор кодека : S_TEXT/UTF8
Идентификатор кодека/Информация : UTF-8 Plain Text
Заголовок : Full
Язык : Russian
Default : Нет
Forced : Нет

Текст #3
Идентификатор : 6
Формат : UTF-8
Идентификатор кодека : S_TEXT/UTF8
Идентификатор кодека/Информация : UTF-8 Plain Text
Заголовок : Full
Язык : English
Default : Нет
Forced : Нет

Меню
00:00:00.000 : :Chapter 1
00:04:18.924 : :Chapter 2
00:09:53.009 : :Chapter 3
00:12:13.441 : :Chapter 4
00:19:09.064 : :Chapter 5
00:23:53.471 : :Chapter 6
00:30:15.480 : :Chapter 7
00:35:29.418 : :Chapter 8
00:40:32.929 : :Chapter 9
00:46:28.034 : :Chapter 10
00:50:25.563 : :Chapter 11
00:56:18.625 : :Chapter 12
00:59:52.380 : :Chapter 13
01:05:45.189 : :Chapter 14
01:11:55.853 : :Chapter 15
01:17:04.327 : :Chapter 16
01:22:10.256 : :Chapter 17
01:30:36.639 : :Chapter 18
01:34:38.171 : :Chapter 19
01:39:21.828 : :Chapter 20
01:44:52.408 : :Chapter 21
01:49:14.712 : :Chapter 22
01:54:55.805 : :Chapter 23
01:59:36.042 : :Chapter 24
02:04:59.908 : :Chapter 25
02:10:27.194 : :Chapter 26
02:16:20.629 : :Chapter 27
02:21:04.789 : :Chapter 28
02:30:39.030 : :Chapter 29

pb.wtf



Скачать Пираты Карибского моря: Сундук мертвеца через торрент http://pic.kartinco.top/images/6/sd7z2.jpg Скачать фильм Пираты Карибского моря: Сундук мертвеца через торрент бесплантно в хорошем качестве Описание: Вновь оказавшись в ирреальном мире, лихой капитан Джек Воробей неожиданно узнает, что является должником легендарного капитана ... 10 10 23
Info! Золотая раздача, скачанное не засчитывается.
Торрент: Зарегистрирован [2013-11-15 19:52] · скачан: 782 раз
Статус: √ проверено
Размер: 7.76 GB
Как cкачать? Как скачать Пираты Карибского моря: Сундук мертвеца через торрент | qTorrent

28-11-2019 20:33  

Отключить всю рекламу на сайте

    Дорогой пользователь! Огромная просьба, поблагодарите релизера, оцените раздачу и оставьте свои комментарий, если Вы скачали Пираты Карибского моря: Сундук мертвеца через торрент бесплатно! Внесите свою лепту в развитие PiratBit!
    Комментировать посты могут только пользователи прошедшие не сложную регистрацию
    Показать сообщения:    

    Пираты Карибского моря: Сундук мертвеца через торрент
    Скачать бесплатно Пираты Карибского моря: Сундук мертвеца
    Пираты Карибского моря: Сундук мертвеца скачать торрент
    Пираты Карибского моря: Сундук мертвеца смотреть онлайн
    Cкачать фильм Пираты Карибского моря: Сундук мертвеца бесплатно
    Пираты Карибского моря: Сундук мертвеца скачать торрент в хорошем качестве
    Пираты Карибского моря: Сундук мертвеца смотреть онлайн бесплатно в хорошем качестве


    Вы не можете начинать темы
    Вы не можете отвечать на сообщения
    Вы не можете редактировать свои сообщения
    Вы не можете удалять свои сообщения
    Вы не можете голосовать в опросах
    Вы не можете прикреплять файлы к сообщениям
    Вы можете скачивать файлы