Ссылка на приватное зеркало нашего сайта всего за 1$. Внимание количество ограничено!!!

2 сезон

iTunes

1 сезон

1

iTunes

iTunes

iTunes

1 сезон

RePack

30

ИГРА 18+

pack

ВАЖНО

!!Акция!!

Alien_RageХит недели

RePack

MK11
pack

Забери бонус

RePack

jed

!!Акция!!

Alien_Rage

RePack

fifa19

RePack

Assassins Creed: Odyssey

RePack

NEED FOR SPEED™ PAYBACK

4 сезон

9 сезон

Бесстыжие 9 сезон

Все сериалы

все сериалы на PB.wtf

RePack

FAR CRY 5
  

Пираты Карибского моря: На странных берегах / Pirates of the Caribbean: On Stranger Tides (Роб Маршалл) [2011 г., фэнтези, боевик, приключения, BDRip 1080p, Дубляж + Оригинал] pb.wtf

Пираты Карибского моря: На странных берегах через торрент pb.wtf

Размер: 7.76 GB | Добавлен: 6 лет 11 мес. назад | Торрент скачан:712 раз
Скачать  

15-11-2013 20:27 Пираты Карибского моря: На странных берегах Скачать торрент  

Пираты Карибского моря: На странных берегах / Pirates of the Caribbean: On Stranger Tides
Год выпуска: 2011
Страна: США
Жанр: фэнтези, боевик, приключения,
Продолжительность: 02:16:23
Перевод: Дубляж + Оригинал
Субтитры: русские,английские

Режиссер: Роб Маршалл

В ролях: Джонни Депп, Пенелопа Крус, Джеффри Раш, Иэн МакШейн, Кевин МакНэлли, Стивен Грэм, Сэм Клафлин, Астрид Берже-Фрисби, Кит Ричардс, Ричард Гриффитс,

Описание: В новой истории о поисках истины, предательстве, вечной молодости и смертельной опасности капитану Джеку Воробью предстоит столкнуться с женщиной из своего прошлого Анжеликой. До самого конца не будет понятно, связывает ли их настоящая любовь, или же Анжелика искусно притворяется, чтобы вместе с Джеком добраться до таинственного источника вечной молодости.
Она силой принуждает капитана Джека Воробья взойти на корабль «Месть Королевы Анны», которым управляет коварный злодей Черная Борода. Наш герой оказывается в ситуации, когда он не знает, чего ему бояться больше — ужасного злодея или же свою давнюю подругу.

Качество: BDRip 1080p
Формат: MKV
Видео кодек: H.264
Аудио кодек: AC3
Видео: (1920x800),6.867Кбит/с, 23.976 кадра/сек
Аудио#1: AC-3, 6 ch, 640 kbps (Rus) 48.0 KHz Дубляж
Аудио#2: AC-3, 6 ch, 640 kbps (Eng) 48.0 KHz Оригинал
скриншот   скриншот   скриншот  

Общее
Уникальный идентификатор : 209255488137663284300427522718806813716 (0x9D6D241CB74321BEB8672D450D93AC14)
Полное имя : Пираты Карибского моря. Квадрология4. Пираты Карибского моря. На странных берегах.2011.BDRip.1080p.Rus.Eng.mkv
Формат : Matroska
Версия формата : Version 2
Размер файла : 7,76 Гбайт
Продолжительность : 2 ч. 16 м.
Общий поток : 8148 Кбит/сек
Название фильма : Пираты Карибского моря: На странных берегах.2011
Дата кодирования : UTC 2013-01-18 16:41:58
Программа кодирования : mkvmerge v5.8.0 ('No Sleep / Pillow') built on Sep 2 2012 15:37:04
Библиотека кодирования : libebml v1.2.3 + libmatroska v1.3.0

Видео
Идентификатор : 1
Формат : AVC
Формат/Информация : Advanced Video Codec
Профиль формата : High@L4.1
Параметр CABAC формата : Да
Параметр ReFrames формата : 5 кадров
Идентификатор кодека : V_MPEG4/ISO/AVC
Продолжительность : 2 ч. 16 м.
Битрейт : 6867 Кбит/сек
Ширина : 1920 пикселей
Высота : 800 пикселей
Соотношение сторон : 2,40:1
Режим частоты кадров : Постоянный
Частота кадров : 23,976 кадра/сек
Цветовое пространство : YUV
Субдискретизация насыщенности : 4:2:0
Битовая глубина : 8 бит
Тип развёртки : Прогрессивная
Бит/(Пиксели*Кадры) : 0.186
Размер потока : 6,39 Гбайт (82%)
Заголовок : Rip by Boriy
Библиотека кодирования : x264 core 129 r2230 1cffe9f
Настройки программы : cabac=1 / ref=5 / deblock=1:0:0 / analyse=0x3:0x113 / me=umh / subme=10 / psy=1 / psy_rd=1.00:0.10 / mixed_ref=1 / me_range=32 / chroma_me=1 / trellis=2 / 8x8dct=1 / cqm=0 / deadzone=21,11 / fast_pskip=0 / chroma_qp_offset=-2 / threads=12 / lookahead_threads=2 / sliced_threads=0 / nr=0 / decimate=0 / interlaced=0 / bluray_compat=0 / constrained_intra=0 / bframes=5 / b_pyramid=2 / b_adapt=2 / b_bias=0 / direct=3 / weightb=1 / open_gop=0 / weightp=2 / keyint=240 / keyint_min=23 / scenecut=40 / intra_refresh=0 / rc=2pass / mbtree=0 / bitrate=6867 / ratetol=1.0 / qcomp=0.60 / qpmin=0 / qpmax=69 / qpstep=4 / cplxblur=20.0 / qblur=0.5 / ip_ratio=1.40 / pb_ratio=1.30 / aq=1:0.80
Язык : English
Default : Да
Forced : Нет

Аудио #1
Идентификатор : 2
Формат : AC-3
Формат/Информация : Audio Coding 3
Расширение режима : CM (complete main)
Параметр Endianness формата : Big
Идентификатор кодека : A_AC3
Продолжительность : 2 ч. 16 м.
Вид битрейта : Постоянный
Битрейт : 640 Кбит/сек
Каналы : 6 каналов
Расположение каналов : Front: L C R, Side: L R, LFE
Частота : 48,0 КГц
Битовая глубина : 16 бит
Метод сжатия : С потерями
Размер потока : 624 Мбайт (8%)
Заголовок : Дубляж
Язык : Russian
Default : Да
Forced : Нет

Аудио #2
Идентификатор : 3
Формат : AC-3
Формат/Информация : Audio Coding 3
Расширение режима : CM (complete main)
Параметр Endianness формата : Big
Идентификатор кодека : A_AC3
Продолжительность : 2 ч. 16 м.
Вид битрейта : Постоянный
Битрейт : 640 Кбит/сек
Каналы : 6 каналов
Расположение каналов : Front: L C R, Side: L R, LFE
Частота : 48,0 КГц
Битовая глубина : 16 бит
Метод сжатия : С потерями
Размер потока : 624 Мбайт (8%)
Заголовок : Оригинал
Язык : English
Default : Нет
Forced : Нет

Текст #1
Идентификатор : 4
Формат : UTF-8
Идентификатор кодека : S_TEXT/UTF8
Идентификатор кодека/Информация : UTF-8 Plain Text
Заголовок : Forced
Язык : Russian
Default : Да
Forced : Да

Текст #2
Идентификатор : 5
Формат : UTF-8
Идентификатор кодека : S_TEXT/UTF8
Идентификатор кодека/Информация : UTF-8 Plain Text
Заголовок : Full
Язык : Russian
Default : Нет
Forced : Нет

Текст #3
Идентификатор : 6
Формат : UTF-8
Идентификатор кодека : S_TEXT/UTF8
Идентификатор кодека/Информация : UTF-8 Plain Text
Заголовок : Full
Язык : English
Default : Нет
Forced : Нет

Меню
00:00:00.000 : :Chapter 1
00:03:34.172 : :Chapter 2
00:08:46.776 : :Chapter 3
00:15:56.080 : :Chapter 4
00:18:34.154 : :Chapter 5
00:21:15.315 : :Chapter 6
00:30:05.512 : :Chapter 7
00:36:56.756 : :Chapter 8
00:42:05.356 : :Chapter 9
00:48:20.022 : :Chapter 10
00:53:26.077 : :Chapter 11
00:55:42.964 : :Chapter 12
00:57:52.844 : :Chapter 13
01:00:47.477 : :Chapter 14
01:08:22.223 : :Chapter 15
01:11:41.338 : :Chapter 16
01:13:03.170 : :Chapter 17
01:14:16.743 : :Chapter 18
01:23:19.994 : :Chapter 19
01:26:49.621 : :Chapter 20
01:30:16.494 : :Chapter 21
01:35:43.737 : :Chapter 22
01:40:57.926 : :Chapter 23
01:43:07.556 : :Chapter 24
01:44:51.660 : :Chapter 25
01:48:53.610 : :Chapter 26
01:57:41.471 : :Chapter 27
02:02:21.375 : :Chapter 28
02:05:51.460 : :Chapter 29
02:07:26.805 : :Chapter 30
02:16:23.592 : :Chapter 31

pb.wtf



Скачать Пираты Карибского моря: На странных берегах через торрент http://pic.kartinco.top/images/6/22ula.jpg Скачать фильм Пираты Карибского моря: На странных берегах через торрент бесплантно в хорошем качестве Описание: В новой истории о поисках истины, предательстве, вечной молодости и смертельной опасности капитану Джеку Воробью предстоит ... 10 10 23
Info! Золотая раздача, скачанное не засчитывается.
Торрент: Зарегистрирован [2013-11-15 20:27] · скачан: 712 раз
Статус: √ проверено
Размер: 7.76 GB
Как cкачать? Как скачать Пираты Карибского моря: На странных берегах через торрент | qTorrent

% Раздел Тема Автор DL S | L
Фильмы (Blu-ray, BD-Remux, HDDVD) [ 25.19 GB ] Пираты Карибского моря: На странных берегах / Pirates of the Caribbean: On Stranger Tides [2011 BD Remux ] Ворон Скачать
3 | 0
Фильмы 2011 [ 2.51 GB ] Пираты Карибского моря: На странных берегах / Pirates of the Caribbean: On Stranger Tides [2011 BDRip-AVC лицензия] Anonymous Скачать
1 | 0
Фильмы 2011 [ 1.37 GB ] Пираты Карибского моря: На странных берегах / Pirates of the Caribbean: On Stranger Tides [2011. .HDRip] лицензия Shmel Скачать
1 | 0
Фильмы (DVD фильмы) [ 6.87 GB ] Пираты Карибского моря: На странных берегах / Pirates of the Caribbean: On Stranger Tides [2011 DVD9] R5 «Уолт Дисней Компани СНГ» voovaz Скачать
1 | 0
3D Фильмы [ 12.25 GB ] Пираты Карибского моря: На странных берегах 3D / Pirates of the Caribbean: On Stranger Tides 3D [2011 BDRip ] Anamorph SideBySide jora poker Скачать
1 | 0
3D Фильмы [ 10.47 GB ] Пираты Карибского моря: На странных берегах 3D / Pirates of the Caribbean: On Stranger Tides 3D 2011 BDrip 1080p Anaglyph red'cyan slaventi-69 Скачать
1 | 0
Фильмы 2011 [ 702 MB ] Пираты Карибского моря: На странных берегах / Pirates of the Caribbean: On Stranger Tides [2011. .HDRip] лицензия 700mb Shmel Скачать
1 | 0

28-11-2019 20:33  

Отключить всю рекламу на сайте

    Дорогой пользователь! Огромная просьба, поблагодарите релизера, оцените раздачу и оставьте свои комментарий, если Вы скачали Пираты Карибского моря: На странных берегах через торрент бесплатно! Внесите свою лепту в развитие PiratBit!
    Комментировать посты могут только пользователи прошедшие не сложную регистрацию
    Показать сообщения:    

    Пираты Карибского моря: На странных берегах через торрент
    Скачать бесплатно Пираты Карибского моря: На странных берегах
    Пираты Карибского моря: На странных берегах скачать торрент
    Пираты Карибского моря: На странных берегах смотреть онлайн
    Cкачать фильм Пираты Карибского моря: На странных берегах бесплатно
    Пираты Карибского моря: На странных берегах скачать торрент в хорошем качестве
    Пираты Карибского моря: На странных берегах смотреть онлайн бесплатно в хорошем качестве


    Вы не можете начинать темы
    Вы не можете отвечать на сообщения
    Вы не можете редактировать свои сообщения
    Вы не можете удалять свои сообщения
    Вы не можете голосовать в опросах
    Вы не можете прикреплять файлы к сообщениям
    Вы можете скачивать файлы