Ссылка на приватное зеркало всего за 1$. Внимание количество ограничено!!!

iTunes

iTunes

iTunes

1

iTunes

iTunes

iTunes

iTunes

iTunes

30
pack

$ от Little Big

ВАЖНО

!!Акция!!

Alien_RageХит недели

RePack

Resident Evil 21

ИГРА 18+

pack

RePack

jed

!!Акция!!

Alien_Rage

RePack

fifa19

RePack

Assassins Creed: Odyssey

RePack

NEED FOR SPEED™ PAYBACK

4 сезон

9 сезон

Бесстыжие 9 сезон

Все сериалы

все сериалы на PB.wtf

RePack

FAR CRY 5
  

Ограбление века / Святая вода / Holy Water (Том Рив / Tom Reeve) [ 2009 , Великобритания , драма, комедия , HDTVRip-1080 ]Профессиональный (многоголосый, закадровый) pb.wtf

Ограбление века через торрент pb.wtf

Размер: 4.46 GB | Добавлен: 6 лет 7 мес. назад | Торрент скачан:90 раз
Скачать  

16-11-2013 04:18 Ограбление века Скачать торрент  

Ограбление века / Святая вода / Holy Water
Год выпуска: 2009
Страна: Великобритания
Жанр: драма, комедия
Продолжительность: 01:29:20
Перевод: Профессиональный (многоголосый, закадровый)
Субтитры: Нет

Режиссер: Том Рив / Tom Reeve
Сценарий: Майкл О’Махони / Michael O'Mahony
Продюсер: Фрэнк Кенигсберг / Frank Konigsberg, Дункан Напиер-Белл / Duncan Napier-Bell, Николас Напиер-Белл / Nicholas Napier-Bell, Ромейн Шредер / Romain Schroeder, Эндрю Сомпер / Andrew Somper
Оператор: Джуст ван Старренбург / Joost van Starrenburg
Композитор: Том Батой / Tom Batoy, Франко Тортора / Franco Tortora

Джон Линч (Tom Gaffney), Корнелиус Кларк (Podger Byrnes), Лохлэйнн О’Меарайн (Donal O'Connell), Киэн Бэрри (Sean Casey), Сьюзэн Линч (Geraldine Gaffney), Дирдри Маллинз (Kate Mulvey), Линда Хэмилтон (Cory Williams), Том ’Тайни’ Листер мл. (SixPac Jordan), Стэнли Таунсенд (Inspector Brian Hogan), Анджелин Болл (PC Anne Mooney), Рэй Каллахэн (Uncle Tim), Фрэнк Данн (Old Ned Lynch)

Мировая премьера: 5 февраля 2010

Описание:Однажды в английской глубинке местный почтальон уговорил своих приятелей украсть грузовик виагры и затем продать его в Амстердаме на черном рынке. Сказано-сделано. После подготовки ограбление прошло без сучка и задоринки. Правда оказалось, что бочки с таблетками оборудованы радиомаяками, и теперь по следу горе-воришек идет служба безопасности фармацевтической компании.

Рейтинг
kinopoisk.ru: 5.909 (123)
imdb.com: 5.60 (954)
MPAA: R - Лицам до 17 лет обязательно присутствие взрослого

Качество: HDTVRip-1080
Формат: MKV
Видео кодек: AVC
Аудио кодек: AC3
Видео: 6562 Кбит/сек, 1920*1080 (16:9), в 25,000 кадров/сек, AVC
Аудио: русский, 448 Кбит/сек, 48,0 КГц, 16 бит, 6 каналов, AC-3


Общее
Кол-во : 284
Кол-во потоков такого типа : 1
Тип потока : General
Тип потока : Общее
Идентификатор типа потока : 0
Inform : Matroska: 4,46 Гбайт, 1 ч. 29 м.
Уникальный идентификатор : 163833914879514726649797112891894783956
Уникальный идентификатор : 163833914879514726649797112891894783956 (0x7B4143A65D35963CB99A9DDCBF89DFD4)
Кол-во видеопотоков : 1
Кол-во аудиопотоков : 1
Video_Format_List : AVC
Video_Format_WithHint_List : AVC
Видеокодеки : AVC
Audio_Format_List : AC-3
Audio_Format_WithHint_List : AC-3
Аудиокодеки : AC3
Audio_Language_List : Russian
Полное имя : H:ТОРРЕНТЫВода.mkv
Имя папки : H:ТОРРЕНТЫ
Имя файла : Вода
Расширение : mkv
Формат : Matroska
Формат : Matroska
Формат/Ссылка :
http://packs.matroska.org/
Формат/Используется в : mkv mk3d mka mks
Коммерческое название : Matroska
Версия формата : Version 2
Кодек : Matroska
Кодек : Matroska
Кодек/Ссылка : http://packs.matroska.org/
Кодек/Используется в : mkv mk3d mka mks
Размер файла : 4792234356
Размер файла : 4,46 Гбайт
Размер файла : 4 Гбайт
Размер файла : 4,5 Гбайт
Размер файла : 4,46 Гбайт
Размер файла : 4,463 Гбайт
Продолжительность : 5360200
Продолжительность : 1 ч. 29 м.
Продолжительность : 1 ч. 29 м. 20 с. 200 мс.
Продолжительность : 1 ч. 29 м.
Продолжительность : 01:29:20.200
Общий поток : 7152322
Общий поток : 7152 Кбит/сек
Размер потока : 95365275
Размер потока : 90,9 Мбайт (2%)
Размер потока : 91 Мбайт
Размер потока : 91 Мбайт
Размер потока : 90,9 Мбайт
Размер потока : 90,95 Мбайт
Размер потока : 90,9 Мбайт (2%)
Пропорции потока : 0.01990
Дата файла : UTC 2013-11-16 03:26:01.118
Дата файла (местная) : 2013-11-16 10:26:01.118
Дата изменения файла : UTC 2013-11-16 03:47:22.123
Дата изменения файла (местная) : 2013-11-16 10:47:22.123
Программа кодирования : Lavf52.64.2
Библиотека кодирования : Lavf52.64.2
Библиотека кодирования : Lavf52.64.2

Видео
Кол-во : 266
Кол-во потоков такого типа : 1
Тип потока : Video
Тип потока : Видео
Идентификатор типа потока : 0
StreamOrder : 0
Inform : 6562 Кбит/сек, 1920*1080 (16:9), в 25,000 кадров/сек, AVC (Component) (High@L4.0) (CABAC / 3 Ref Frames)
Идентификатор : 1
Идентификатор : 1
Уникальный идентификатор : 1
Формат : AVC
Формат/Информация : Advanced Video Codec
Формат/Ссылка : http://developers.videolan.org/x264.html
Коммерческое название : AVC
Профиль формата : High@L4.0
Настройки формата : CABAC / 3 Ref Frames
Параметр CABAC формата : Yes
Параметр CABAC формата : Да
Параметр ReFrames формата : 3
Параметр ReFrames формата : 3 кадра
Интернет-тип носителя : video/H264
Идентификатор кодека : V_MPEG4/ISO/AVC
Идентификатор кодека/Ссылка : http://ffdshow-tryout.sourceforge.net/
Кодек : V_MPEG4/ISO/AVC
Кодек : AVC
Кодек/Семейство : AVC
Кодек/Информация : Advanced Video Codec
Кодек/Ссылка : http://ffdshow-tryout.sourceforge.net/
Профиль кодека : High@L4.0
Настройки кодека : CABAC / 3 Ref Frames
Параметр CABAC кодека : Yes
Codec_Settings_RefFrames : 3
Продолжительность : 5360200
Продолжительность : 1 ч. 29 м.
Продолжительность : 1 ч. 29 м. 20 с. 200 мс.
Продолжительность : 1 ч. 29 м.
Продолжительность : 01:29:20.200
Битрейт : 6561991
Битрейт : 6562 Кбит/сек
Ширина : 1920
Ширина : 1920 пикселей
Высота : 1080
Высота : 1080 пикселей
Пропорции пикселя : 1.000
Соотношение сторон : 1.778
Соотношение сторон : 16:9
Режим частоты кадров : CFR
Режим частоты кадров : Постоянный
Частота кадров : 25.000
Частота кадров : 25,000 кадров/сек
Счётчик кадров : 134005
Стандарт вещания : Component
Разрешение : 8
Разрешение : 8 бит
Колориметрия : 4:2:0
Цветовое пространство : YUV
Субдискретизация насыщенности : 4:2:0
Битовая глубина : 8
Битовая глубина : 8 бит
Тип развёртки : Interlaced
Тип развёртки : Чересстрочная
Порядок развёртки : TFF
Порядок развёртки : Верхнее поле первое
Переплетение : TFF
Переплетение : Верхнее поле первое
Бит/(Пиксели*Кадры) : 0.127
Задержка : 200
Задержка : 200 мс.
Задержка : 200 мс.
Задержка : 200 мс.
Задержка : 00:00:00.200
Задержка в оригинале : Container
Задержка в оригинале : Контейнер
Размер потока : 4396697881
Размер потока : 4,09 Гбайт (92%)
Размер потока : 4 Гбайт
Размер потока : 4,1 Гбайт
Размер потока : 4,09 Гбайт
Размер потока : 4,095 Гбайт
Размер потока : 4,09 Гбайт (92%)
Пропорции потока : 0.91746
Default : Yes
Default : Да
Forced : No
Forced : Нет
Основные цвета : BT.709
Характеристики трансфера : BT.709
Коэффициенты матрицы : BT.709

Аудио
Кол-во : 243
Кол-во потоков такого типа : 1
Тип потока : Audio
Тип потока : Аудио
Идентификатор типа потока : 0
StreamOrder : 1
Inform : Russian, 448 Кбит/сек, 48,0 КГц, 16 бит, 6 каналов, AC-3
Идентификатор : 2
Идентификатор : 2
Уникальный идентификатор : 2
Формат : AC-3
Формат/Информация : Audio Coding 3
Коммерческое название : AC-3
Расширение режима : CM (complete main)
Параметр Endianness формата : Big
Идентификатор кодека : A_AC3
Кодек : AC3
Кодек : AC3
Кодек/Семейство : AC3
Кодек/Информация : Dolby AC3
Продолжительность : 5360200
Продолжительность : 1 ч. 29 м.
Продолжительность : 1 ч. 29 м. 20 с. 200 мс.
Продолжительность : 1 ч. 29 м.
Продолжительность : 01:29:20.200
Вид битрейта : CBR
Вид битрейта : Постоянный
Битрейт : 448000
Битрейт : 448 Кбит/сек
Каналы : 6
Каналы : 6 каналов
Расположение каналов : Front: L C R, Side: L R, LFE
Расположение каналов : 3/2/0.1
Частота : 48000
Частота : 48,0 КГц
Количество образцов : 257289600
Разрешение : 16
Разрешение : 16 бит
Битовая глубина : 16
Битовая глубина : 16 бит
Метод сжатия : Lossy
Метод сжатия : С потерями
Задержка : 200
Задержка : 200 мс.
Задержка : 200 мс.
Задержка : 200 мс.
Задержка : 00:00:00.200
Задержка в оригинале : Container
Задержка в оригинале : Контейнер
Задержка видео : 0
Задержка видео : 0
Размер потока : 300171200
Размер потока : 286 Мбайт (6%)
Размер потока : 286 Мбайт
Размер потока : 286 Мбайт
Размер потока : 286 Мбайт
Размер потока : 286,3 Мбайт
Размер потока : 286 Мбайт (6%)
Пропорции потока : 0.06264
Язык : ru
Язык : Russian
Язык : Russian
Язык : ru
Язык : rus
Язык : ru
Default : Yes
Default : Да
Forced : No
Forced : Нет
bsid : 6
dialnorm : -27
dialnorm/String : -27 dB
compr : -0.28
compr/String : -0.28 dB
acmod : 7
lfeon : 1
dialnorm_Average : -27
dialnorm_Average/String : -27 dB
dialnorm_Minimum : -27
dialnorm_Minimum/String : -27 dB
dialnorm_Maximum : -27
dialnorm_Maximum/String : -27 dB
dialnorm_Count : 2
compr_Average : -0.28
compr_Average/String : -0.28 dB
compr_Minimum : -0.28
compr_Minimum/String : -0.28 dB
compr_Maximum : -0.28
compr_Maximum/String : -0.28 dB
compr_Count : 2


[URL=http://radikal.ru/fp/6656ff24f6134b1aae1a91465d9e8418]



pb.wtf



Скачать Ограбление века через торрент http://trueimages.ru/img/a4/c4/e3de6825.jpg Скачать фильм Ограбление века через торрент бесплантно в хорошем качестве Описание:Однажды в английской глубинке местный почтальон уговорил своих приятелей украсть грузовик виагры и затем продать его в Амстердаме ... 10 10 2
Info! Золотая раздача, скачанное не засчитывается.
Торрент: Зарегистрирован [2013-11-16 04:18] · скачан: 90 раз
Статус: √ проверено
Размер: 4.46 GB
Как cкачать? Как скачать Ограбление века через торрент | qTorrent



Последний раз редактировалось: GEKADOL (2013-11-19 02:27), всего редактировалось 4 раз(а)

28-11-2019 20:33  

Отключить всю рекламу на сайте

    Дорогой пользователь! Огромная просьба, поблагодарите релизера, оцените раздачу и оставьте свои комментарий, если Вы скачали Ограбление века через торрент бесплатно! Внесите свою лепту в развитие PiratBit!
    Комментировать посты могут только пользователи прошедшие не сложную регистрацию
    Показать сообщения:    

    Ограбление века через торрент
    Скачать бесплатно Ограбление века
    Ограбление века скачать торрент
    Ограбление века смотреть онлайн
    Cкачать фильм Ограбление века бесплатно
    Ограбление века скачать торрент в хорошем качестве
    Ограбление века смотреть онлайн бесплатно в хорошем качестве


    Вы не можете начинать темы
    Вы не можете отвечать на сообщения
    Вы не можете редактировать свои сообщения
    Вы не можете удалять свои сообщения
    Вы не можете голосовать в опросах
    Вы не можете прикреплять файлы к сообщениям
    Вы можете скачивать файлы