Ссылка на приватное зеркало нашего сайта всего за 1$. Внимание количество ограничено!!!

2 сезон

iTunes

1 сезон

1

2 сезон

2 сезон

iTunes

1 сезон

RePack

30

Ultimate

ВАЖНО

ИГРА 18+

pack

RePack

MK11
pack

Забери бонус

RePack

jed

!!Акция!!

Alien_Rage

RePack

fifa19

RePack

Assassins Creed: Odyssey

RePack

NEED FOR SPEED™ PAYBACK

4 сезон

9 сезон

Бесстыжие 9 сезон

Все сериалы

все сериалы на PB.wtf

RePack

FAR CRY 5
  

Косяки / Дурман / Weeds / Сезон: 1 / Серии: 1-10 из 10 (Крейг Зиск) [2005, США, драма, комедия, криминал, BDRip-AVC] AVO [Д.Строев] + MVO [FoxLife] + Original pb.wtf

Косяки через торрент pb.wtf

Размер: 7.02 GB | Добавлен: 7 лет назад | Торрент скачан:162 раза
Скачать  

16-11-2013 12:59 Косяки Скачать торрент  

Косяки / Дурман / Weeds
«Putting the Herb in Suburb»
Год выпуска: 2005
Страна: США
Жанр: драма, комедия, криминал
Продолжительность: 00:31:41
Перевод:
|Авторский одноголосый закадровый, Д.Строев|
|Профессиональный многолосый закадровый, FoxLife|
Субтитры: Русские (Артём Ионов), английские
В ролях: Мэри-Луиз Паркер (Nancy Botwin), Хантер Пэрриш (Silas Botwin), Александр Гоулд (Shane Botwin), Кевин Нилон (Doug Wilson), Джастин Кирк (Andy Botwin), Элизабет Перкинс (Celia Hodes), Элли Грант (Isabelle Hodes), Энди Милдер (Dean Hodes), Тони Патано (Heylia James), Романи Малко (Conrad Shepard), Демиан Бишир (Esteban Reyes), Молик Панчоли (Sanjay)
Описание:
Речь в сериале идет не о борьбе с наркотиками и о том, как же вредна наркомания; здесь представлен взгляд совершенно с другой стороны - Нэнси живет в том самом американском сабарбе - предместье, где у каждого свой «скелет в шкафу». Она - вдова с двумя весьма оригинальными детьми. Старший, Сайлас, мальчик умный и интересный, с постоянными проблемами на любовном фронте, младший, Шейн - это вообще отдельная песня, за мамой он ходит постоянно и просит дать ему антидепрессанты, причем в больших количествах.
Но вернемся к маме - Нэнси не нашла никакого другого способа прокормить семью, как начать торговать марихуаной, которую ей подбрасывают местные дилеры - семейка афроамериканцев, где всем заправляет Хейлия, а помогает весьма неравнодушный к Нэнси парень Конрад.
После появления собственного торговца марихуаной, у Нэнси начали отовариваться все ее соседи - адвокаты, финансисты и прочие личности. В общем, можете себе представить эту картину, здорово приправленную черным юмором, замечательными комедийными вставками и трагикомическими поворотам.
Рейтинг
kinopoisk.ru: 7.960 (5603)
imdb.com: 7.70 (35 076)

Качество: BDRip-AVC
Формат: MKV
Видео кодек: AVC
Аудио кодек: AC3
Видео: AVC, 1024x576 (16:9), 2450 kbps, 23,976 fps, 0,173 bpp
Аудио №1: русский / AC3 / 5.1 / 48 kHz / 448 kbps / 16 bit |Д.Строев| | содержит нецензурную лексику!
Аудио №2: русский / AC3 / 2.0 / 48 kHz / 192 kbps / 16 bit |FoxLife|
Аудио №3: английский / AC3 / 5.1 / 48 kHz / 448 kbps / 16 bit |Original|

Оригинальный релиз от:
Рип от: ollan

Код:

Перевод и озвучание осуществлены в рамках сервиса "Озвучивание".

Оформление: Messa-fan
General
Unique ID : 216020143991159729838667000852040509838 (0xA283F7655B80BEF1A1F37DC970B9E98E)
Complete name : Weeds.S01E01-E10.2005.x264.BDRip.(AVC).ExKinoRay | Weeds.S01E01.2005.x264.BDRip.(AVC).ExKinoRay.mkv
Format : Matroska
Format version : Version 2
File size : 802 MiB
Duration : 31mn 41s
Overall bit rate : 3 540 Kbps
Movie name : Косяки.2005.(1-й эпизод).Rip by: ollan
Encoded date : UTC 2013-07-20 19:49:13
Writing application : mkvmerge v5.6.0 ('Kenya Kane') built on May 27 2012 16:44:04
Writing library : libebml v1.2.3 + libmatroska v1.3.0

Video
ID : 1
Format : AVC
Format/Info : Advanced Video Codec
Format profile : High@L4.1
Format settings, CABAC : Yes
Format settings, ReFrames : 9 frames
Codec ID : V_MPEG4/ISO/AVC
Duration : 31mn 41s
Bit rate : 2 450 Kbps
Width : 1 024 pixels
Height : 576 pixels
Display aspect ratio : 16:9
Frame rate : 23.976 fps
Color space : YUV
Chroma subsampling : 4:2:0
Bit depth : 8 bits
Scan type : Progressive
Bits/(Pixel*Frame) : 0.173
Stream size : 540 MiB (67%)
Writing library : x264 core 125 r2200 999b753
Encoding settings : cabac=1 / ref=9 / deblock=1:-2:-2 / analyse=0x3:0x133 / me=umh / subme=11 / psy=1 / psy_rd=1.00:0.00 / mixed_ref=1 / me_range=32 / chroma_me=1 / trellis=2 / 8x8dct=1 / cqm=0 / deadzone=21,11 / fast_pskip=0 / chroma_qp_offset=-2 / threads=12 / lookahead_threads=2 / sliced_threads=0 / nr=0 / decimate=0 / interlaced=0 / bluray_compat=0 / constrained_intra=0 / bframes=9 / b_pyramid=2 / b_adapt=1 / b_bias=0 / direct=3 / weightb=1 / open_gop=0 / weightp=2 / keyint=240 / keyint_min=23 / scenecut=40 / intra_refresh=0 / rc_lookahead=80 / rc=2pass / mbtree=1 / bitrate=2450 / ratetol=1.0 / qcomp=0.60 / qpmin=0 / qpmax=69 / qpstep=4 / cplxblur=20.0 / qblur=0.5 / ip_ratio=1.40 / aq=1:1.00
Default : Yes
Forced : No

Audio #1
ID : 2
Format : AC-3
Format/Info : Audio Coding 3
Mode extension : CM (complete main)
Codec ID : A_AC3
Duration : 31mn 41s
Bit rate mode : Constant
Bit rate : 448 Kbps
Channel(s) : 6 channels
Channel positions : Front: L C R, Side: L R, LFE
Sampling rate : 48.0 KHz
Bit depth : 16 bits
Compression mode : Lossy
Stream size : 102 MiB (13%)
Title : Одноголосый закадровый (Д.Строев)
Language : Russian
Default : Yes
Forced : Yes

Audio #2
ID : 3
Format : AC-3
Format/Info : Audio Coding 3
Mode extension : CM (complete main)
Codec ID : A_AC3
Duration : 31mn 41s
Bit rate mode : Constant
Bit rate : 192 Kbps
Channel(s) : 2 channels
Channel positions : Front: L R
Sampling rate : 48.0 KHz
Bit depth : 16 bits
Compression mode : Lossy
Stream size : 43.5 MiB (5%)
Title : Профессиональный многоголосый (Fox Life)
Language : Russian
Default : No
Forced : No

Audio #3
ID : 4
Format : AC-3
Format/Info : Audio Coding 3
Mode extension : CM (complete main)
Codec ID : A_AC3
Duration : 31mn 41s
Bit rate mode : Constant
Bit rate : 448 Kbps
Channel(s) : 6 channels
Channel positions : Front: L C R, Side: L R, LFE
Sampling rate : 48.0 KHz
Bit depth : 16 bits
Compression mode : Lossy
Stream size : 102 MiB (13%)
Language : English
Default : No
Forced : No

Text #1
ID : 5
Format : UTF-8
Codec ID : S_TEXT/UTF8
Codec ID/Info : UTF-8 Plain Text
Title : Артём Ионов
Language : Russian
Default : No
Forced : No

Text #2
ID : 6
Format : UTF-8
Codec ID : S_TEXT/UTF8
Codec ID/Info : UTF-8 Plain Text
Language : English
Default : No
Forced : No

s_white, Frailty, markinscor, shifu, Kain_Rasiel, Vlad1k_H_, ARTYq, shandorra, BLADE, meil, man1280, AlekseyEnerg
Внимание! Сериал не предназначен для просмотрам лицами, не достигшими 18 лет!pb.wtf



Скачать Косяки через торрент http://i5.imageban.ru/out/2013/11/16/1cf04c3384621cb0e5019f39c4112c85.jpg Скачать фильм Косяки через торрент бесплантно в хорошем качестве Описание: Речь в сериале идет не о борьбе с наркотиками и о том, как же вредна наркомания; здесь представлен взгляд совершенно с другой ... 9.1 10 8
Info! Золотая раздача, скачанное не засчитывается.
Торрент: Зарегистрирован [2013-11-16 12:59] · скачан: 162 раз
Статус: √ проверено
Размер: 7.02 GB
Как cкачать? Как скачать Косяки через торрент | qTorrent

% Раздел Тема Автор DL S | L
Зарубежные сериалы [ 35.61 GB ] Косяки / Дурман / Weeds / Сезон: 1-8 / Серии: 1-101 из 101 [2005-2012 HDRip BDRip HDTVRip] MVO + Original Serejechka Скачать
1 | 0


Последний раз редактировалось: Messa-fan (2013-11-16 13:09), всего редактировалось 5 раз(а)

28-11-2019 20:33  

Отключить всю рекламу на сайте

16-11-2013 13:00 Косяки Скачать торрент  

Д.Строев пока что озвучил только первый сезон.pb.wtf



    Дорогой пользователь! Огромная просьба, поблагодарите релизера, оцените раздачу и оставьте свои комментарий, если Вы скачали Косяки через торрент бесплатно! Внесите свою лепту в развитие PiratBit!
    Комментировать посты могут только пользователи прошедшие не сложную регистрацию
    Показать сообщения:    

    Косяки через торрент
    Скачать бесплатно Косяки
    Косяки скачать торрент
    Косяки смотреть онлайн
    Cкачать фильм Косяки бесплатно
    Косяки скачать торрент в хорошем качестве
    Косяки смотреть онлайн бесплатно в хорошем качестве


    Вы не можете начинать темы
    Вы не можете отвечать на сообщения
    Вы не можете редактировать свои сообщения
    Вы не можете удалять свои сообщения
    Вы не можете голосовать в опросах
    Вы не можете прикреплять файлы к сообщениям
    Вы можете скачивать файлы