Ссылка на приватное зеркало нашего сайта всего за 1$. Внимание количество ограничено!!!

2 сезон

iTunes

1 сезон

1

iTunes

iTunes

iTunes

1 сезон

RePack

30

ИГРА 18+

pack

ВАЖНО

!!Акция!!

Alien_RageХит недели

RePack

MK11
pack

Забери бонус

RePack

jed

!!Акция!!

Alien_Rage

RePack

fifa19

RePack

Assassins Creed: Odyssey

RePack

NEED FOR SPEED™ PAYBACK

4 сезон

9 сезон

Бесстыжие 9 сезон

Все сериалы

все сериалы на PB.wtf

RePack

FAR CRY 5
  

Джобс Империя соблазна / jOBS (Джошуа Майкл Штерн) [2013 г., Драма, Биография, BDRip 1080i, Дублированный (Лицензия)] pb.wtf

Джобс Империя соблазна через торрент pb.wtf

Размер: 7.72 GB | Добавлен: 6 лет 11 мес. назад | Торрент скачан:261 раз
Скачать  

13-11-2013 20:18 Джобс Империя соблазна Скачать торрент  


Джобс: Империя соблазна / jOBS«Некоторые видят возможности, другие меняют эти возможности»
Информация:
Год выпуска: 2013
Страна: США
Жанр: Драма, Биография
Продолжительность: 02:02:16
Перевод: Дублированный (Лицензия)
Режиссер: Джошуа Майкл Штерн
В ролях: Эштон Кутчер, Дермот Малруни, Джош Гад, Лукас Хаас, Дж.К. Симмонс, Лесли Энн Уоррен, Рон Элдард, Ана О’Райли, Джон Гец, Джеймс Вудс...
Описание:
Он был молод, красив и чертовски талантлив. Начав с нуля, он смог построить мировую империю соблазна. О нем грезили женщины. Ему завидовали мужчины. Он соблазнил миллионы. Его звали Стив Джобс.
Тех.Данные:
Качество: BDRip 1080i | Blu-Ray 1080i | Автор рипа: XLASER
Формат: MKV
Видео кодек: AVC
Аудио кодек: AC3
Видео: AVC at 8282 Кбит/сек 1920 x 1080 (2.400) at 50.000 fps
Аудио: AC-3 at 576 Кбит/сек 6 каналов, 48,0 КГц


Код:

Формат                                   : Matroska
Версия формата                           : Version 2
Размер файла                             : 7,72 Гбайт
Продолжительность                        : 2 ч. 2 м.
Общий поток                              : 9038 Кбит/сек
Программа кодирования                    : XviD4PSP 6.0 / 54.29.105
Библиотека кодирования                   : XviD4PSP 6.0 / 54.29.105

Видео
Идентификатор                            : 1
Формат                                   : AVC
Формат/Информация                        : Advanced Video Codec
Профиль формата                          : High@L4.1
Параметр CABAC формата                   : Да
Параметр ReFrames формата                : 3 кадра
Идентификатор кодека                     : V_MPEG4/ISO/AVC
Продолжительность                        : 2 ч. 2 м.
Битрейт                                  : 8282 Кбит/сек
Номинальный битрейт                      : 8800 Кбит/сек
Ширина                                   : 1920 пикселей
Высота                                   : 1080 пикселей
Соотношение сторон                       : 2,40:1
Режим частоты кадров                     : Постоянный
Частота кадров                           : 50,000 кадров/сек
Цветовое пространство                    : YUV
Субдискретизация насыщенности            : 4:2:0
Битовая глубина                          : 8 бит
Тип развёртки                            : Прогрессивная
Бит/(Пиксели*Кадры)                      : 0.080
Размер потока                            : 7,07 Гбайт (92%)
Библиотека кодирования                   : x264 core 128 r2216M 198a7ea
Настройки программы                      : cabac=1 / ref=3 / deblock=1:0:0 / analyse=0x3:0x133 / me=dia / subme=5 / psy=1 / psy_rd=1.00:0.20 / mixed_ref=1 / me_range=16 / chroma_me=1 / trellis=0 / 8x8dct=1 / cqm=0 / deadzone=21,11 / fast_pskip=1 / chroma_qp_offset=0 / threads=3 / lookahead_threads=1 / sliced_threads=0 / nr=0 / decimate=1 / interlaced=0 / bluray_compat=0 / constrained_intra=0 / bframes=3 / b_pyramid=1 / b_adapt=0 / b_bias=0 / direct=3 / weightb=1 / open_gop=0 / weightp=0 / keyint=500 / keyint_min=50 / scenecut=40 / intra_refresh=0 / rc_lookahead=40 / rc=abr / mbtree=1 / bitrate=8800 / ratetol=1.0 / qcomp=0.60 / qpmin=10 / qpmax=51 / qpstep=4 / ip_ratio=1.40 / aq=1:1.00
Default                                  : Да
Forced                                   : Нет

Аудио
Идентификатор                            : 2
Формат                                   : AC-3
Формат/Информация                        : Audio Coding 3
Расширение режима                        : CM (complete main)
Параметр Endianness формата              : Big
Идентификатор кодека                     : A_AC3
Продолжительность                        : 2 ч. 2 м.
Вид битрейта                             : Постоянный
Битрейт                                  : 576 Кбит/сек
Каналы                                   : 6 каналов
Расположение каналов                     : Front: L C R, Side: L R, LFE
Частота                                  : 48,0 КГц
Битовая глубина                          : 16 бит
Метод сжатия                             : С потерями
Задержка видео                           : 59 мс.
Размер потока                            : 504 Мбайт (6%)
Язык                                     : Russian
Default                                  : Да
Forced                                   : Нет


скриншот   скриншот   скриншот   скриншот   скриншот  
pb.wtf



Скачать Джобс Империя соблазна через торрент http://s6.hostingkartinok.com/uploads/images/2013/11/22d7c5ab02b2acf80e040abc733769e2.png Скачать фильм Джобс Империя соблазна через торрент бесплантно в хорошем качестве Описание: Он был молод, красив и чертовски талантлив. Начав с нуля, он смог построить мировую империю соблазна. О нем грезили женщины. Ему ... 9.3 10 15
Info! Золотая раздача, скачанное не засчитывается.
Торрент: Зарегистрирован [2013-11-17 11:18] · скачан: 261 раз
Статус: √ проверено
Размер: 7.72 GB
Как cкачать? Как скачать Джобс Империя соблазна через торрент | qTorrent

% Раздел Тема Автор DL S | L
Фильмы 2013 [DVDrip, WEB-DLRip, HDrip] [ 1.46 GB ] Джобс: Империя соблазна / jOBS [2013 биография HDRip ] Seedtank Скачать
1 | 0
Фильмы (DVD фильмы) [ 5.45 GB ] Джобс: Империя соблазна / jOBS [2013 биография DVD9] R5 voovaz Скачать
1 | 0
Фильмы (Blu-ray, BD-Remux, HDDVD) [ 13.84 GB ] Джобс: Империя соблазна / jOBS [2013 биография BD Remux [] Ворон Скачать
1 | 0


Последний раз редактировалось: XLASER (2013-11-13 20:40), всего редактировалось 1 раз

28-11-2019 20:33  

Отключить всю рекламу на сайте

    Дорогой пользователь! Огромная просьба, поблагодарите релизера, оцените раздачу и оставьте свои комментарий, если Вы скачали Джобс Империя соблазна через торрент бесплатно! Внесите свою лепту в развитие PiratBit!
    Комментировать посты могут только пользователи прошедшие не сложную регистрацию
    Показать сообщения:    

    Джобс Империя соблазна через торрент
    Скачать бесплатно Джобс Империя соблазна
    Джобс Империя соблазна скачать торрент
    Джобс Империя соблазна смотреть онлайн
    Cкачать фильм Джобс Империя соблазна бесплатно
    Джобс Империя соблазна скачать торрент в хорошем качестве
    Джобс Империя соблазна смотреть онлайн бесплатно в хорошем качестве


    Вы не можете начинать темы
    Вы не можете отвечать на сообщения
    Вы не можете редактировать свои сообщения
    Вы не можете удалять свои сообщения
    Вы не можете голосовать в опросах
    Вы не можете прикреплять файлы к сообщениям
    Вы можете скачивать файлы