Ссылка на приватное зеркало нашего сайта всего за 1$. Внимание количество ограничено!!!

2 сезон

iTunes

1 сезон

1

2 сезон

2 сезон

iTunes

1 сезон

RePack

30

Ultimate

ВАЖНО

ИГРА 18+

pack

RePack

MK11
pack

Забери бонус

RePack

jed

!!Акция!!

Alien_Rage

RePack

fifa19

RePack

Assassins Creed: Odyssey

RePack

NEED FOR SPEED™ PAYBACK

4 сезон

9 сезон

Бесстыжие 9 сезон

Все сериалы

все сериалы на PB.wtf

RePack

FAR CRY 5
  

Флаббер / FLUBBER (Лес Мэйфилд) [1997 г., комедия, фантастика, HDTVRip 720p, Дубляж + Оригинал] pb.wtf

Флаббер через торрент pb.wtf

Размер: 4.2 GB | Добавлен: 7 лет назад | Торрент скачан:93 раза
Скачать  

17-11-2013 11:48 Флаббер Скачать торрент  

Флаббер / FLUBBER
Год выпуска: 1997
Страна: США
Жанр: комедия, фантастика,
Продолжительность: 93 мин
Перевод: Профессиональный (полное дублирование)
Субтитры: Отсутствуют

Режиссер: Лес Мэйфилд
Продюссер: Джон Хьюз, Рикардо Местрес, Катрин Мейерс
Сценарий: Джон Хьюз, Билл Уолш, Сэмюэл В. Тейлор

Бюджет: 80 млн. $
Премьера в мире: 16 ноября 1997

В ролях: Робин Уильямс, Марша Гей Харден, Кристофер МакДональд, Рэймонд Джей Бэрри, Клэнси Браун, Тед Ливайн, Уилл Уитон, Сэм Ллойд, Скотт Мартин Гершин,

Описание: Флаббер. Последнее изобретение профессора химии, над которым он трудился всю жизнь. Рассеянный ученый даже не подозревает, какое важное открытие подарил миру. Ведь на самом деле этот непримечательный кусок резины концентрированный сгусток энергии невероятной мощности.Наденьте тапочки из волшебного материала, и можете смело отправляться на соревнования по прыжкам в высоту. Если вам этого мало заправьте им свой автомобиль, но лучше не нажимать на газ, иначе вскоре радары обнаружат в воздухе неопознанный летающий объект.А теперь представьте, что может произойти, если неуправляемая материя исчезает прямо из под носа счастливого профессора и попадает в руки злодеев

Качество: HDTVRip 720p
Формат: MKV
Видео кодек: MPEG4
Аудио кодек: AC3
Видео: 1280*720, 6000 kbps, 23,976 fps, 0.272 Бит/(Пиксели*Кадры)
Аудио#1: 384kbps, 6ch, 48,0КГц |Russian|
Аудио#2: 384kbps, 6ch, 48,0КГц |English|





Общее
Уникальный идентификатор : 183628311230680548996930658409642238962 (0x8A2586BD257059029EFBC9E43184A3F2)
Полное имя : E:кинофантастикаФлаббер.1997.720p.mkv
Формат : Matroska
Версия формата : Version 1
Размер файла : 4,20 Гбайт
Продолжительность : 1 ч. 30 м.
Общий поток : 6669 Кбит/сек
Дата кодирования : UTC 2010-05-04 16:11:27
Программа кодирования : mkvmerge v2.4.1 ('Use Me') built on Dec 5 2008 18:30:05
Библиотека кодирования : libebml v0.7.7 + libmatroska v0.8.1

Видео
Идентификатор : 1
Формат : AVC
Формат/Информация : Advanced Video Codec
Профиль формата : Baseline@L4.0
Параметр CABAC формата : Нет
Параметр ReFrames формата : 1 кадр
Идентификатор кодека : V_MPEG4/ISO/AVC
Продолжительность : 1 ч. 30 м.
Битрейт : 6000 Кбит/сек
Ширина : 1280 пикселей
Высота : 720 пикселей
Соотношение сторон : 16:9
Режим частоты кадров : Постоянный
Частота кадров : 23,976 кадра/сек
Цветовое пространство : YUV
Субдискретизация насыщенности : 4:2:0
Битовая глубина : 8 бит
Тип развёртки : Прогрессивная
Бит/(Пиксели*Кадры) : 0.272
Размер потока : 3,63 Гбайт (86%)
Заголовок : -= Tazman =-
Библиотека кодирования : x264 core 67 r1163+17 7d945df
Настройки программы : cabac=0 / ref=1 / deblock=1:0:0 / analyse=0x1:0x111 / me=hex / subme=6 / psy_rd=1.0:0.0 / mixed_ref=0 / me_range=16 / chroma_me=1 / trellis=0 / 8x8dct=0 / cqm=0 / deadzone=21,11 / chroma_qp_offset=-2 / threads=3 / nr=0 / decimate=1 / mbaff=0 / bframes=0 / keyint=250 / keyint_min=25 / scenecut=40 / rc=abr / bitrate=6000 / ratetol=1.0 / qcomp=0.60 / qpmin=10 / qpmax=51 / qpstep=4 / ip_ratio=1.40 / aq=1:1.00
Язык : English
Default : Да
Forced : Нет

Аудио #1
Идентификатор : 2
Формат : AC-3
Формат/Информация : Audio Coding 3
Расширение режима : CM (complete main)
Параметр Endianness формата : Big
Идентификатор кодека : A_AC3
Продолжительность : 1 ч. 30 м.
Вид битрейта : Постоянный
Битрейт : 384 Кбит/сек
Каналы : 6 каналов
Расположение каналов : Front: L C R, Side: L R, LFE
Частота : 48,0 КГц
Битовая глубина : 16 бит
Метод сжатия : С потерями
Размер потока : 248 Мбайт (6%)
Заголовок : -= Tazman =-
Язык : Russian
Default : Да
Forced : Нет

Аудио #2
Идентификатор : 3
Формат : AC-3
Формат/Информация : Audio Coding 3
Расширение режима : CM (complete main)
Параметр Endianness формата : Big
Идентификатор кодека : A_AC3
Продолжительность : 1 ч. 30 м.
Вид битрейта : Постоянный
Битрейт : 384 Кбит/сек
Каналы : 6 каналов
Расположение каналов : Front: L C R, Side: L R, LFE
Частота : 48,0 КГц
Битовая глубина : 16 бит
Метод сжатия : С потерями
Размер потока : 248 Мбайт (6%)
Заголовок : -= Tazman =-
Язык : English
Default : Нет
Forced : Нет




Флаббер скачать торрент


pb.wtf



Скачать Флаббер через торрент http://www.kinogurman.net/uploads/posts/2013-05/1367872303_flubber.jpg Скачать фильм Флаббер через торрент бесплантно в хорошем качестве Описание: Флаббер. Последнее изобретение профессора химии, над которым он трудился всю жизнь. Рассеянный ученый даже не подозревает, какое ... 9.8 10 11
Info! Золотая раздача, скачанное не засчитывается.
Торрент: Зарегистрирован [2013-11-17 11:48] · скачан: 93 раз
Статус: √ проверено
Размер: 4.2 GB
Как cкачать? Как скачать Флаббер через торрент | qTorrent



Последний раз редактировалось: matews (2013-11-20 00:57), всего редактировалось 10 раз(а)

28-11-2019 20:33  

Отключить всю рекламу на сайте

17-11-2013 12:22 Флаббер Скачать торрент  

Замените постер.
Выложите скриншоты.

Предосавьте отчёт MediaInfo
Присутствие этой информации обязательно.
По пунктам:
1. Качаете и устанавливаете http://mediaarea.net/download/binary/mediainfo-gui/0.7.64/MediaInfo_GUI_0.7.64_Windows.exe
2. Запускаете.
скриншот  
3. Получите такое окно (в настройках выберите русский язык).
скриншот  
4. Файл>Открыть>Файл и указываете файл, который вы раздаёте.
5. Получите что-то типа этого
скриншот  
6. Копируете ВСЁ, что он написал и вставляете в раздачу под спойлером

Код:

[spoiler="MI"]здесь вся информация которую вам выдала программа [/spoiler]

Об исправлении сообщите в лс со ссылкой на раздачу.
pb.wtf





Последний раз редактировалось: Messa-fan (2013-11-20 06:03), всего редактировалось 1 раз
    Дорогой пользователь! Огромная просьба, поблагодарите релизера, оцените раздачу и оставьте свои комментарий, если Вы скачали Флаббер через торрент бесплатно! Внесите свою лепту в развитие PiratBit!
    Комментировать посты могут только пользователи прошедшие не сложную регистрацию
    Показать сообщения:    

    Флаббер через торрент
    Скачать бесплатно Флаббер
    Флаббер скачать торрент
    Флаббер смотреть онлайн
    Cкачать фильм Флаббер бесплатно
    Флаббер скачать торрент в хорошем качестве
    Флаббер смотреть онлайн бесплатно в хорошем качестве


    Вы не можете начинать темы
    Вы не можете отвечать на сообщения
    Вы не можете редактировать свои сообщения
    Вы не можете удалять свои сообщения
    Вы не можете голосовать в опросах
    Вы не можете прикреплять файлы к сообщениям
    Вы можете скачивать файлы