Всегда рабочее зеркало без VPN и Proxy просто перед .vidak.icu напиши любое слово или цифру, Пример http://uul3.vidak.icu

MVO

Лицензия

1 сезон

1

1 сезон

iTunes

1 сезон

13

1 сезон

Deluxe

pack

Рекомендуем

Repack

30

ВАЖНО

RePack

MK11

RePack

jed

RePack

fifa19

RePack

RDR2

RePack

NEED FOR SPEED™ PAYBACK

Кинопоиск HD

6 сезон

 Острые козырьки 6 сезон

Все сериалы

все сериалы на PB.wtf

RePack

FAR CRY 5
  
Magnet ссылка

Человек-улыбка / The Smile Man (Антон Ланшаков) [ 2013 , США, Россия , короткометражка, комедия, драма , HDTVRip ]Профессиональный (двухголосый) pb.wtf

Человек-улыбка через торрент pb.wtf

Размер: 101 MB | Добавлен: 8 лет 7 мес. назад | Торрент скачан:358 раз
Смотреть онлайн Человек-улыбка | Скачать    Ребята, помогите собрать деньги на оплату серверов!!!

17-11-2013 18:49 Человек-улыбка Скачать торрент  

Человек-улыбка / The Smile ManГод выпуска: 2013
Страна: США, Россия
Жанр: короткометражка, комедия, драма

Продолжительность: 00:09:50
Перевод: Профессиональный (двухголосый)
Субтитры: Нет
Режиссер: Антон Ланшаков
В ролях: Уиллем Дефо (Willem), Камилла Гуати (Irene), Дэвид Ст. Джеймс (Doctor), Джереми Люк (Shorty), Дэмиен Д. Смит (Taxi)
Описание:
Фильм повествует о человеке, который в результате автомобильной аварии и повреждения позвоночника вынужден всю жизнь жить с улыбкой на лице.
Рейтинг
kinopoisk.ru: 7.984 (4244)
imdb.com: 6.80 (174)
Качество: HDTVRip
Формат: AVI
Видео кодек: XviD
Аудио кодек: AC3
Видео: XviD, 720x304 (2.35:1), 1261 kbps, 23,976 fps, 0,240 bpp
Аудио: AC3 / 2.0 / 48 kHz / 160 kbps / 16 bit
General
Complete name : D:ТорентыCelovek.ulibka.2013.L.HDTVRip.avi
Format : AVI
Format/Info : Audio Video Interleave
File size : 101 MiB
Duration : 9mn 50s
Overall bit rate : 1 431 Kbps
Writing application : VirtualDubMod 1.5.10.2 (build 2540/release)
Writing library : VirtualDubMod build 2540/release

Video
ID : 0
Format : MPEG-4 Visual
Format profile : [email protected]
Format settings, BVOP : No
Format settings, QPel : No
Format settings, GMC : No warppoints
Format settings, Matrix : Default (H.263)
Codec ID : XVID
Codec ID/Hint : XviD
Duration : 9mn 50s
Bit rate : 1 262 Kbps
Width : 720 pixels
Height : 304 pixels
Display aspect ratio : 2.35:1
Frame rate : 23.976 fps
Color space : YUV
Chroma subsampling : 4:2:0
Bit depth : 8 bits
Scan type : Progressive
Compression mode : Lossy
Bits/(Pixel*Frame) : 0.240
Stream size : 88.8 MiB (88%)
Writing library : XviD 64

Audio
ID : 1
Format : AC-3
Format/Info : Audio Coding 3
Mode extension : CM (complete main)
Codec ID : 2000
Duration : 9mn 50s
Bit rate mode : Constant
Bit rate : 160 Kbps
Channel(s) : 2 channels
Channel positions : Front: L R
Sampling rate : 48.0 KHz
Bit depth : 16 bits
Compression mode : Lossy
Stream size : 11.3 MiB (11%)
Alignment : Split accross interleaves
Interleave, duration : 42 ms (1.00 video frame)
Interleave, preload duration : 500 ms
pb.wtf



Скачать Человек-улыбка через торрент http://i1.imageban.ru/out/2013/11/17/3f954a48ac832fa17edc27f1ea8c836e.jpg Скачать, смотреть онлайн Человек-улыбка бесплантно в хорошем качестве Описание: Фильм повествует о человеке, который в результате автомобильной аварии и повреждения позвоночника вынужден всю жизнь жить с ... 9.5 10 10
Info! Золотая раздача, скачанное не засчитывается.
Торрент: Зарегистрирован [2013-11-17 18:49] · скачан: 358 раз
Статус: √ проверено
Размер: 101 MB
Как cкачать? Как скачать Человек-улыбка через торрент | UTorrent

28-11-2019 20:33  

Отключить всю рекламу на сайте

17-11-2013 21:34 Человек-улыбка Скачать торрент  

смотрел как-то. отличная полнометражка.pb.wtf



18-11-2013 15:24 Человек-улыбка Скачать торрент  

на один разpb.wtf



    Дорогой пользователь! Огромная просьба, поблагодарите релизера, оцените раздачу и оставьте свои комментарий, если Вы скачали Человек-улыбка через торрент бесплатно!
    Комментировать посты могут только пользователи прошедшие не сложную регистрацию
    Показать сообщения:    

    Человек-улыбка через торрент
    Скачать бесплатно Человек-улыбка
    Человек-улыбка скачать торрент
    Человек-улыбка смотреть онлайн
    Cкачать фильм Человек-улыбка бесплатно
    Человек-улыбка скачать торрент в хорошем качестве
    Человек-улыбка смотреть онлайн бесплатно в хорошем качестве


    Вы не можете начинать темы
    Вы не можете отвечать на сообщения
    Вы не можете редактировать свои сообщения
    Вы не можете удалять свои сообщения
    Вы не можете голосовать в опросах
    Вы не можете прикреплять файлы к сообщениям
    Вы можете скачивать файлы