Ссылка на приватное зеркало всего за 1$. Внимание количество ограничено!!!

iTunes

iTunes

iTunes

1

iTunes

iTunes

iTunes

iTunes

iTunes

30
pack

$ от Little Big

ВАЖНО

!!Акция!!

Alien_RageХит недели

RePack

Resident Evil 21

ИГРА 18+

pack

RePack

jed

!!Акция!!

Alien_Rage

RePack

fifa19

RePack

Assassins Creed: Odyssey

RePack

NEED FOR SPEED™ PAYBACK

4 сезон

9 сезон

Бесстыжие 9 сезон

Все сериалы

все сериалы на PB.wtf

RePack

FAR CRY 5
  

Пленницы / Prisoners (Дени Вильнёв / Denis Villeneuve) [ 2013 , США , триллер, драма, криминал , WEB-DL 1080p ] MVO (BaibaKo) pb.wtf

Пленницы через торрент pb.wtf

Раздают: 2 [ 0 KB/s ]
Размер: 6.16 GB | Добавлен: 6 лет 7 мес. назад | Торрент скачан:1027 раз
Скачать  

18-11-2013 13:43 Пленницы Скачать торрент  

Пленницы / PrisonersГод выпуска: 2013
Страна: США
Жанр: триллер, драма, криминал

Продолжительность: 02:33:09
Перевод: Профессиональный (многоголосый, закадровый) (BaibaKo)
Субтитры: Английский, Французкий
Режиссер: Дени Вильнёв / Denis Villeneuve
В ролях: Хью Джекман (Keller Dover), Джейк Джилленхол (Detective Loki), Виола Дэвис (Nancy Birch), Мария Белло (Grace Dover), Терренс Ховард (Franklin Birch), Мелисса Лео (Holly Jones), Пол Дано (Alex Jones), Дилан Миннетт (Ralph Dover), Зои Борд (Eliza Birch), Эрин Герасимович (Anna Dover), Кайла Дрю Симмонс (Joy Birch), Уэйн Дювалл (Captain Richard O'Malley)
Описание:
Келлер Довер сталкивается с самым большим кошмаром каждого родителя: его шестилетняя дочь пропала вместе с подругой. Время бежит, девочки не возвращаются, и паника достигает своего предела. Единственная зацепка - обветшалый фургончик, который был припаркован на их улице, когда девочки играли во дворе. Детектив Локки, возглавляющий расследование, арестовывает его водителя, Алекса Джонса, но вскоре полиция вынуждена его отпустить из-за нехватки улик. Полиция медлит, а обезумевший от горя отец берет дело в свои руки. Но как далеко готов зайти Келлер в поисках девочек?
Рейтинг
kinopoisk.ru: 7.961 (7925)
imdb.com: 8.10 (39 907)
MPAA: R - Лицам до 17 лет обязательно присутствие взрослого
Качество: WEB-DL -1080p
Формат: MKV
Видео кодек: AVC
Аудио кодек: AC3
Видео: AVC, 1916x1078 (16:9), 4879 kbps, 23,976 fps, 0,099 bpp
Аудио №1: английский / AC3 / 5.1 / 48 kHz / 384 kbps / 16 bit
Аудио №2: русский / AC3 / 5.1 / 48 kHz / 384 kbps / 16 bit ||

General
Unique ID : 213257257107813243894009186316568892055 (0xA06FDA8E313B795F849F9ABE65FA1297)
Complete name : D:ТорентыPrisoners.2013.1080p.WEB-DL.mkv
Format : Matroska
Format version : Version 2
File size : 6.16 GiB
Duration : 2h 33mn
Overall bit rate : 5 762 Kbps
Movie name : Prisoners.2013.1080p.WEB-DL-Feel_1984
Encoded date : UTC 2013-11-17 20:42:28
Writing application : mkvmerge v4.3.0 ('Escape from the Island') сборка от Sep 5 2010 10:30:51
Writing library : libebml v1.0.0 + libmatroska v1.0.0

Video
ID : 1
Format : AVC
Format/Info : Advanced Video Codec
Format profile : High@L4.0
Format settings, CABAC : Yes
Format settings, ReFrames : 4 frames
Muxing mode : Header stripping
Codec ID : V_MPEG4/ISO/AVC
Duration : 2h 33mn
Bit rate : 4 879 Kbps
Width : 1 916 pixels
Height : 1 078 pixels
Display aspect ratio : 16:9
Frame rate : 23.976 fps
Color space : YUV
Chroma subsampling : 4:2:0
Bit depth : 8 bits
Scan type : Progressive
Bits/(Pixel*Frame) : 0.099
Stream size : 5.22 GiB (85%)
Language : English
Default : Yes
Forced : No
Color primaries : BT.709-5, BT.1361, IEC 61966-2-4, SMPTE RP177
Transfer characteristics : BT.709-5, BT.1361
Matrix coefficients : BT.709-5, BT.1361, IEC 61966-2-4 709, SMPTE RP177

Audio #1
ID : 2
Format : AC-3
Format/Info : Audio Coding 3
Mode extension : CM (complete main)
Muxing mode : Header stripping
Codec ID : A_AC3
Duration : 2h 33mn
Bit rate mode : Constant
Bit rate : 384 Kbps
Channel(s) : 6 channels
Channel positions : Front: L C R, Side: L R, LFE
Sampling rate : 48.0 KHz
Bit depth : 16 bits
Compression mode : Lossy
Stream size : 421 MiB (7%)
Language : English
Default : No
Forced : No

Audio #2
ID : 3
Format : AC-3
Format/Info : Audio Coding 3
Mode extension : CM (complete main)
Muxing mode : Header stripping
Codec ID : A_AC3
Duration : 2h 33mn
Bit rate mode : Constant
Bit rate : 384 Kbps
Channel(s) : 6 channels
Channel positions : Front: L C R, Side: L R, LFE
Sampling rate : 48.0 KHz
Bit depth : 16 bits
Compression mode : Lossy
Stream size : 421 MiB (7%)
Title : Многоголосый закадровый, профессиональный (BaibaKo)
Language : Russian
Default : Yes
Forced : No

Text #1
ID : 4
Format : UTF-8
Codec ID : S_TEXT/UTF8
Codec ID/Info : UTF-8 Plain Text
Language : English
Default : No
Forced : No

Text #2
ID : 5
Format : UTF-8
Codec ID : S_TEXT/UTF8
Codec ID/Info : UTF-8 Plain Text
Language : French
Default : No
Forced : No

Menu
00:00:00.000 : en:1
00:08:50.000 : en:2
00:19:51.000 : en:3
00:30:18.000 : en:4
00:40:23.000 : en:5
00:49:36.000 : en:6
00:59:27.000 : en:7
01:08:24.000 : en:8
01:17:29.000 : en:9
01:29:17.000 : en:10
01:41:34.000 : en:11
01:51:37.000 : en:12
01:59:39.000 : en:13
02:11:46.000 : en:14
02:19:50.000 : en:15
02:25:53.000 : en:16
pb.wtf



Скачать Пленницы через торрент http://i3.imageban.ru/out/2013/11/18/b18a2363847b6e6f85758ef12fa2673a.jpg Скачать фильм Пленницы через торрент бесплантно в хорошем качестве Описание: Келлер Довер сталкивается с самым большим кошмаром каждого родителя: его шестилетняя дочь пропала вместе с подругой. Время бежит, ... 9.4 10 25
Info! Золотая раздача, скачанное не засчитывается.
Торрент: Зарегистрирован [2013-11-18 13:43] · скачан: 1 027 раз
Статус: √ проверено
Размер: 6.16 GB
Как cкачать? Как скачать Пленницы через торрент | qTorrent

% Раздел Тема Автор DL S | L
Фильмы 2013 [DVDrip, WEB-DLRip, HDrip] [ 1.46 GB ] Пленницы / Prisoners [2013 BDRip-AVC] DUB potroks Скачать
1 | 0
Фильмы 2013 [DVDrip, WEB-DLRip, HDrip] [ 2.18 GB ] Пленницы / Prisoners [2013 BDRip-AVC] DUB potroks Скачать
2 | 0
Фильмы 2013 [DVDrip, WEB-DLRip, HDrip] [ 2.05 GB ] Пленницы / Prisoners [2013 HDRip [ - Студия Пифагор] Ворон Скачать
1 | 0
Фильмы 2013 [DVDrip, WEB-DLRip, HDrip] [ 2.18 GB ] Пленницы / Prisoners [2013 BDRip-AVC] MVO [BaibaKo] potroks Скачать
1 | 0
Фильмы 2013 [DVDrip, WEB-DLRip, HDrip] [ 2.73 GB ] Пленницы / Prisoners [2013 HDRip] [MVO / BaibaKo] лисяра Скачать
1 | 0
Фильмы (Blu-ray, BD-Remux, HDDVD) [ 31.71 GB ] Пленницы / Prisoners [2013 BDRemux MVO AVO] [BaibaKo / Ю.Сербин] лисяра Скачать
1 | 0
Фильмы 2013 [DVDrip, WEB-DLRip, HDrip] [ 1.46 GB ] Пленницы / Prisoners [ 2013 WEB-DLRip ] MVO / BaibaKo Ворон Скачать
1 | 0

28-11-2019 20:33  

Отключить всю рекламу на сайте

07-12-2013 04:04 Пленницы Скачать торрент  

отличный фильм!отличная игра ролей известных актеров!сразу чувствуется уровень.Этот фильм достаточно интересен в плане раздумий ,сопереживаний.Этот фильм показывает что среди нас живет много сумашедших и всякой мр*зи, которые в любой момент могут появиться в жизни любого человека.Да и еще просто представьте во время просмотра,что было бы если вместо их полиции была бы наша "мегапрофессианальная".Удачи и приятного просмотраpb.wtf



09-12-2013 15:26 Пленницы Скачать торрент  

фильм очень хороший, перевод полный отстой,зачем переводить то когда актер стонет от боли,что за тупость.Буду ждать дубляж оригинальный.pb.wtf



    Дорогой пользователь! Огромная просьба, поблагодарите релизера, оцените раздачу и оставьте свои комментарий, если Вы скачали Пленницы через торрент бесплатно! Внесите свою лепту в развитие PiratBit!
    Комментировать посты могут только пользователи прошедшие не сложную регистрацию
    Показать сообщения:    

    Пленницы через торрент
    Скачать бесплатно Пленницы
    Пленницы скачать торрент
    Пленницы смотреть онлайн
    Cкачать фильм Пленницы бесплатно
    Пленницы скачать торрент в хорошем качестве
    Пленницы смотреть онлайн бесплатно в хорошем качестве


    Вы не можете начинать темы
    Вы не можете отвечать на сообщения
    Вы не можете редактировать свои сообщения
    Вы не можете удалять свои сообщения
    Вы не можете голосовать в опросах
    Вы не можете прикреплять файлы к сообщениям
    Вы можете скачивать файлы