Присоединяйтесь к нам в Telegram!, здесь всегда актуальный адрес сайта, оперативная поддержка и многое другое!!

>

5.9

iTunes

7.4

iTunes

9.4

1 сезон

1

7.4

2 сезон

7.2

iTunes

7.3

1 сезон

13

6.1

iTunes

8.3

Пиратка

30

ULTIMATE

pack

9.9

Лицензия

ВАЖНО

ИГРА 18+

pack

7.3

RePack

MK11

7.7

RePack

jed

7.8

RePack

fifa19

8.5

RePack

RDR2

RePack

NEED FOR SPEED™ PAYBACK

5 сезон

9 сезон

Бесстыжие 9 сезон

Все сериалы

все сериалы на PB.wtf

RePack

FAR CRY 5

Anonymous, доброй ночи, мы катастрофически не успеваем собрать деньги на оплату серверов, помогите нам пожалуйста 5,10,15р., для нас важна любая помощь . В качестве благодарности мы отключим Вам всю рекламу на сайте (укажите свой ник в строку Ваше имя)!

×
  
Magnet ссылка

Eminem - Survival (Explicit) (Official Music Video) [2013 г., R'n'B, Rap, WEB-Rip, Оригинал] pb.wtf

Eminem - Survival через торрент pb.wtf

Размер: 172 MB | Добавлен: 8 лет назад | Торрент скачан:127 раз
Смотреть онлайн Eminem - Survival | Скачать    Ребята, помогите собрать деньги на оплату серверов!!!

20-11-2013 11:55 Eminem - Survival Скачать торрент  


Eminem - Survival (Explicit)



Год выпуска: 2013
Жанр: R'n'B, Rap
Продолжительность: 00:04:31
Описание: Клип на тему новой игры Call of Duty: Ghosts
Качество: WEB-Rip
Формат: MP4
Видео кодек: AVC
Аудио кодек: AAC
Видео: High@L4.0 avc1,1920x1080 (16:9), 5119kbps, 23.976fps, 0.103 Bits/(Pixel*Frame)
Аудио: 44.1 KHz, AAC , 2 channels, 192 Kbps
General
Complete name : F:NEW VIDEOКЛИПЫEminem - Survival (Explicit).mp4
Format : MPEG-4
Format profile : Base Media / Version 2
Codec ID : mp42
File size : 172 MiB
Duration : 4mn 31s
Overall bit rate : 5 313 Kbps
Encoded date : UTC 2013-10-07 15:55:04
Tagged date : UTC 2013-10-07 15:55:04
gsst : 0
gstd : 271626
gssd : B4A7D0DA4HH1381253246696203
gshh : r13---sn-4g57lnlz.c.youtube.com

Video
ID : 1
Format : AVC
Format/Info : Advanced Video Codec
Format profile : High@L4.0
Format settings, CABAC : Yes
Format settings, ReFrames : 1 frame
Codec ID : avc1
Codec ID/Info : Advanced Video Coding
Duration : 4mn 31s
Bit rate mode : Variable
Bit rate : 5 119 Kbps
Maximum bit rate : 12.5 Mbps
Width : 1 920 pixels
Height : 1 080 pixels
Display aspect ratio : 16:9
Frame rate mode : Constant
Frame rate : 23.976 fps
Color space : YUV
Chroma subsampling : 4:2:0
Bit depth : 8 bits
Scan type : Progressive
Bits/(Pixel*Frame) : 0.103
Stream size : 166 MiB (96%)
Tagged date : UTC 2013-10-07 15:58:22

Audio
ID : 2
Format : AAC
Format/Info : Advanced Audio Codec
Format version : Version 4
Format profile : LC
Format settings, SBR : No
Codec ID : 40
Duration : 4mn 31s
Bit rate mode : Variable
Bit rate : 192 Kbps
Maximum bit rate : 202 Kbps
Channel(s) : 2 channels
Channel positions : Front: L R
Sampling rate : 44.1 KHz
Stream size : 6.22 MiB (4%)
Title : IsoMedia File Produced by Google, 5-11-2011
Encoded date : UTC 2013-10-07 15:55:57
Tagged date : UTC 2013-10-07 15:58:22
pb.wtf



Скачать Eminem - Survival через торрент http://2.firepic.org/2/images/2013-11/20/pzpgpkn1tkpo.jpg Скачать, смотреть онлайн Eminem - Survival бесплантно в хорошем качестве Описание: Клип на тему новой игры Call of Duty: ... 10 10 11
Info! Золотая раздача, скачанное не засчитывается.
Торрент: Зарегистрирован [2013-11-20 11:55] · скачан: 127 раз
Статус: √ проверено
Размер: 172 MB
Как cкачать? Как скачать Eminem - Survival через торрент | UTorrent



Последний раз редактировалось: killermax2013 (2013-11-20 12:00), всего редактировалось 1 раз

28-11-2019 20:33  

Отключить всю рекламу на сайте

20-11-2013 11:57 Eminem - Survival Скачать торрент  

yes нормальноpb.wtf



20-11-2013 11:59 Eminem - Survival Скачать торрент  

_Уг писал(а):

yes нормально

больше чем нормально pb.wtf



20-11-2013 12:08 Eminem - Survival Скачать торрент  

круто pb.wtf



    Дорогой пользователь! Огромная просьба, поблагодарите релизера, оцените раздачу и оставьте свои комментарий, если Вы скачали Eminem - Survival через торрент бесплатно!
    Комментировать посты могут только пользователи прошедшие не сложную регистрацию
    Показать сообщения:    

    Eminem - Survival через торрент
    Скачать бесплатно Eminem - Survival
    Eminem - Survival скачать торрент
    Eminem - Survival смотреть онлайн
    Cкачать фильм Eminem - Survival бесплатно
    Eminem - Survival скачать торрент в хорошем качестве
    Eminem - Survival смотреть онлайн бесплатно в хорошем качестве


    Вы не можете начинать темы
    Вы не можете отвечать на сообщения
    Вы не можете редактировать свои сообщения
    Вы не можете удалять свои сообщения
    Вы не можете голосовать в опросах
    Вы не можете прикреплять файлы к сообщениям
    Вы можете скачивать файлы