Ссылка на приватное зеркало нашего сайта всего за 1$. Внимание количество ограничено!!!

2 сезон

iTunes

1 сезон

1

iTunes

iTunes

iTunes

1 сезон

RePack

30

ИГРА 18+

pack

ВАЖНО

!!Акция!!

Alien_RageХит недели

RePack

MK11
pack

Забери бонус

RePack

jed

!!Акция!!

Alien_Rage

RePack

fifa19

RePack

Assassins Creed: Odyssey

RePack

NEED FOR SPEED™ PAYBACK

4 сезон

9 сезон

Бесстыжие 9 сезон

Все сериалы

все сериалы на PB.wtf

RePack

FAR CRY 5
  

Тариф на прошлое/ 1-4 серии из 4 (Петр Амелин) [2013 г., трагикомедия,фантастика, SATRip] pb.wtf

Тариф на прошлое через торрент pb.wtf

Размер: 2.12 GB | Добавлен: 6 лет 11 мес. назад | Торрент скачан:634 раза
Скачать  

21-11-2013 10:38 Тариф на прошлое Скачать торрент  

Тариф на прошлое
Год выпуска: 2013
Страна: Россия, Ланд Синема
Жанр: трагикомедия, фантастика,
Продолжительность: 4 х ~ 00:47:47

Режиссер: Петр Амелин
Продюссер: Василий Корвяков, Ольга Ланд, Евгения Гранде
Сценарий: Дмитрий Новоселов, Петр Амелин

Премьера в мире: 25 октября 2013

http://www.kinopoisk.ru/film/806625/votes/

В ролях: Сергей Марин, Виктор Добронравов, Денис Пьянов, Виктория Лукина, Серафима Низовская, Валерий Кухарешин, Екатерина Рябова, Алексей Федотов, Дмитрий Поднозов, Елена Тепляшина, Оксана Базилевич, Татьяна Полонская, Игорь Михайлов,

Описание: Как и многие молодые люди, Виталик Шестаков всегда был довольно беспечным человеком. И когда однажды ему представилась возможность вернуться в прошлое, он не замедлил ею воспользоваться. Но <эффект бабочки> не заставил себя долго ждать: хотя Виталик провел в прошлом всего два часа, его жизнь навсегда изменилась. Когда молодой человек вернулся обратно в свое время, он понял, что совершил большую ошибку, вмешавшись в закономерный ход судьбы. И теперь ему остается только попытаться исправить содеянное.

Качество: SATRip
Формат: AVI
Видео кодек: DivX
Аудио кодек: MP3
Видео: DivX 5, 720x400, 25.00fps, ~ 1600 Кбит/с
Аудио: MPEG Audio Layer 3, 48000Hz stereo, 128kbps
Релиз от: NNM-Club






Общее
Полное имя : D:ТоррентыФИЛЬМЫ торентаТариф на прошлое.2013.SATRipТариф на прошлое.01.avi
Формат : AVI
Формат/Информация : Audio Video Interleave
Размер файла : 561 Мбайт
Продолжительность : 47 м.
Общий поток : 1641 Кбит/сек
Программа кодирования : transcode-1.1.5

Видео
Идентификатор : 0
Формат : MPEG-4 Visual
Параметр BVOP формата : Да
Параметр QPel формата : Нет
Параметр GMC формата : Без точки перехода
Параметр матрицы формата : Default (H.263)
Идентификатор кодека : DX50
Идентификатор кодека/Подсказка : DivX 5
Продолжительность : 47 м.
Битрейт : 1500 Кбит/сек
Ширина : 720 пикс.
Высота : 400 пикс.
Соотношение сторон : 16:9
Частота кадров : 25,000 кадр/сек
Цветовое пространство : YUV
Подвыборка цветности : 4:2:0
Битовая глубина : 8 бит
Тип развёртки : Прогрессивная
Метод сжатия : С потерями
Бит/(Пиксели*Кадры) : 0.208
Размер потока : 513 Мбайт (91%)
Библиотека кодирования : Intel(R) MPEG-4 encoder based on Intel(R) IPP 6.1 build 137.20[6.1.137.763]

Аудио
Идентификатор : 1
Формат : MPEG Audio
Версия формата : Version 1
Профиль формата : Layer 3
Режим : Joint stereo
Расширение режима : MS Stereo
Идентификатор кодека : 55
Идентификатор кодека/Подсказка : MP3
Продолжительность : 47 м.
Вид битрейта : Постоянный
Битрейт : 128 Кбит/сек
Каналы : 2 канала
Частота : 48,0 КГц
Метод сжатия : С потерями
Размер потока : 43,8 Мбайт (8%)
Выравнивание : Соединение по промежуткам
Продолжительность промежутка : 24 мс. (0,60 видеокадр)
Время предзагрузки промежутка : 48 ms
Библиотека кодирования : LAME3.98.2

pb.wtf



Скачать Тариф на прошлое через торрент http://pic.kartinco.top/images/6/z6new.jpg Скачать фильм Тариф на прошлоечерез торрент бесплантно в хорошем качестве Описание: Как и многие молодые люди, Виталик Шестаков всегда был довольно беспечным человеком. И когда однажды ему представилась ... 9.3 10 11
Info! Золотая раздача, скачанное не засчитывается.
Торрент: Зарегистрирован [2013-11-21 10:38] · скачан: 634 раз
Статус: √ проверено
Размер: 2.12 GB
Как cкачать? Как скачать Тариф на прошлое через торрент | qTorrent

% Раздел Тема Автор DL S | L
Наши сериалы [ 2.31 GB ] Тариф на прошлое / 1-4 серии из 4 [2013 WEB-DLRip-AVC] bober100 Скачать
1 | 1

28-11-2019 20:33  

Отключить всю рекламу на сайте

24-11-2013 07:45 Тариф на прошлое Скачать торрент  

как сериал pb.wtf



04-12-2013 06:49 Тариф на прошлое Скачать торрент  

Фильм вполне себе хорош! Это не трагикомедия, и не фантастика, а лёгкая комедия, в общем даже со смыслом!pb.wtf



04-12-2013 07:06 Тариф на прошлое Скачать торрент  

автор, а чего такой "короткий" трейлер под спойлером: 3:05:06)))pb.wtf



    Дорогой пользователь! Огромная просьба, поблагодарите релизера, оцените раздачу и оставьте свои комментарий, если Вы скачали Тариф на прошлое через торрент бесплатно! Внесите свою лепту в развитие PiratBit!
    Комментировать посты могут только пользователи прошедшие не сложную регистрацию
    Показать сообщения:    

    Тариф на прошлое через торрент
    Скачать бесплатно Тариф на прошлое
    Тариф на прошлое скачать торрент
    Тариф на прошлое смотреть онлайн
    Cкачать фильм Тариф на прошлое бесплатно
    Тариф на прошлое скачать торрент в хорошем качестве
    Тариф на прошлое смотреть онлайн бесплатно в хорошем качестве


    Вы не можете начинать темы
    Вы не можете отвечать на сообщения
    Вы не можете редактировать свои сообщения
    Вы не можете удалять свои сообщения
    Вы не можете голосовать в опросах
    Вы не можете прикреплять файлы к сообщениям
    Вы можете скачивать файлы