2 сезон

iTunes

MVO

1

2 сезон

iTunes

iTunes

1 сезон

RePack

30

Новинка

ВАЖНО

ИГРА 18+

pack

RePack

MK11
pack

Легкие деньги

RePack

jed

RePack

fifa19

RePack

RDR2

RePack

NEED FOR SPEED™ PAYBACK

4 сезон

9 сезон

Бесстыжие 9 сезон

Все сериалы

все сериалы на PB.wtf

RePack

FAR CRY 5

Anonymous, добрый вечер, мы не успеваем собрать деньги на оплату серверов за декабрь и январь, помогите нам пожалуйста в это трудное время. В качестве благодарности мы отключим Вам всю рекламу на сайте (укажите свой ник в строку Ваше имя)!

×
  
Magnet ссылка

Великая красота / La grande bellezza / The Great Beauty (Паоло Соррентино / Paolo Sorrentino) [2013, драма, BDRip-AVC] MVO [Лицензия] pb.wtf

Великая красота через торрент pb.wtf

Раздают: 1 [ 0 KB/s ]
Размер: 2.99 GB | Добавлен: 3 года назад | Торрент скачан:126 раз
Скачать  

21-11-2013 14:50 Великая красота Скачать торрент  

Великая красота
La grande bellezza / The Great Beauty


Страна: Италия, Франция
Жанр: драма

Год выпуска: 2013
Продолжительность: 02:21:29

Перевод: Профессиональный (многоголосый, закадровый) [DVD/R5]
Субтитры: русские (полные), английские (полные)
Оригинальная аудиодорожка: итальянский

Режиссер: Паоло Соррентино / Paolo Sorrentino

В ролях: Тони Сервилло, Карло Вердоне, Сабрина Ферилли, Карло Буччироссо, Яя Форте, Памела Виллорези, Галатеа Ранци, Франко Грациози, Джорджо Пазотти, Массимо Пополицио, Соня Жесне, Анна Делла Роза

Описание:
Аристократки, нувориши, политики, преступники высокого полёта, журналисты, актёры, декаденствующие отпрыски благородных семейств, священники, художники, подлинные или мнимые интеллектуалы... Всех их поглощает современный Вавилон, пока они ткут канву непрочных взаимоотношений, предаваясь суетной жизни на фоне старинных дворцов, огромных вилл и великолепных террас. Все они здесь, и никто не предстаёт в выгодном свете.



Релиз:

Автор рипа: stalkerok | Моя группа

Сэмпл

Качество видео: BDRip-AVC [Blu-ray Remux 1080p / Criterion Collection / rutracker]
Формат видео: MKV
Видео кодек: AVC
Аудио кодек: AC3
Видео: 2382 Кбит/сек, 1080*460 (2,35:1), в 23,976 (24000/1001) кадра/сек, AVC
Аудио #1: русский, 192 Кбит/сек, 48,0 КГц, 2 канала, AC-3
Аудио #2: итальянский, 448 Кбит/сек, 48,0 КГц, 6 каналов, AC-3
Навигация по главам: есть

---[Information] [14.01.2018 16:40:00] x264 [info]: frame I:1488 Avg QP:17.19 size: 58701
---[Information] [14.01.2018 16:40:00] x264 [info]: frame P:37634 Avg QP:19.51 size: 24062
---[Information] [14.01.2018 16:40:00] x264 [info]: frame B:164412 Avg QP:22.11 size: 9337

Общее
Уникальный идентификатор : 200815682053859269375622358111873017504 (0x9713B18BA42D5B6CBCF562D8A9E226A0)
Полное имя : M:\$oldrerips\La grande bellezza\La.grande.bellezza.2013.BDRip-AVC.RUS.ITA.stalkerok.new-team.mkv
Формат : Matroska
Версия формата : Version 4 / Version 2
Размер файла : 2,99 Гбайт
Продолжительность : 2 ч. 21 м.
Общий поток : 3024 Кбит/сек
Название фильма : La grande bellezza (2013) (Rip by stalkerok)
Дата кодирования : UTC 2018-01-14 15:05:14
Программа кодирования : mkvmerge v8.6.1 ('Flying') 64bit
Библиотека кодирования : libebml v1.3.3 + libmatroska v1.4.4

Видео
Идентификатор : 5
Формат : AVC
Формат/Информация : Advanced Video Codec
Профиль формата : High@L4.1
Параметр CABAC формата : Да
Параметр ReFrames формата : 14 кадров
Идентификатор кодека : V_MPEG4/ISO/AVC
Продолжительность : 2 ч. 21 м.
Битрейт : 2382 Кбит/сек
Ширина : 1080 пикселей
Высота : 460 пикселей
Соотношение сторон : 2,35:1
Режим частоты кадров : Постоянный
Частота кадров : 23,976 (24000/1001) кадра/сек
Цветовое пространство : YUV
Субдискретизация насыщенности : 4:2:0
Битовая глубина : 8 бит
Тип развёртки : Прогрессивная
Бит/(Пиксели*Кадры) : 0.200
Размер потока : 2,35 Гбайт (79%)
Заголовок : La grande bellezza (2013) (Rip by stalkerok)
Библиотека кодирования : x264 core 152 r2851kMod ba24899
Настройки программы : cabac=1 / ref=14 / deblock=1:-2:-1 / analyse=0x3:0x133 / me=umh / subme=10 / psy=1 / fade_compensate=0.00 / psy_rd=1.00:0.00 / mixed_ref=1 / me_range=32 / chroma_me=1 / trellis=2 / 8x8dct=1 / cqm=0 / deadzone=21,11 / fast_pskip=0 / chroma_qp_offset=-2 / threads=12 / lookahead_threads=3 / sliced_threads=0 / nr=0 / decimate=1 / interlaced=0 / bluray_compat=0 / constrained_intra=0 / bframes=14 / b_pyramid=2 / b_adapt=2 / b_bias=0 / direct=3 / weightb=1 / open_gop=0 / weightp=2 / keyint=240 / keyint_min=23 / scenecut=40 / intra_refresh=0 / rc_lookahead=60 / rc=crf / mbtree=0 / crf=19.7000 / qcomp=0.65 / qpmin=0 / qpmax=69 / qpstep=4 / vbv_maxrate=50000 / vbv_bufsize=62500 / crf_max=0.0 / nal_hrd=none / filler=0 / ip_ratio=1.40 / pb_ratio=1.30 / aq=3:0.87
Default : Да
Forced : Нет

Аудио #1
Идентификатор : 1
Формат : AC-3
Формат/Информация : Audio Coding 3
Расширение режима : CM (complete main)
Параметр Endianness формата : Big
Идентификатор кодека : A_AC3
Продолжительность : 2 ч. 21 м.
Вид битрейта : Постоянный
Битрейт : 192 Кбит/сек
Каналы : 2 канала
Расположение каналов : Front: L R
Частота : 48,0 КГц
Частота кадров : 31,250 кадров/сек (1536 spf)
Метод сжатия : С потерями
Размер потока : 194 Мбайт (6%)
Заголовок : MVO, R5
Язык : Russian
Default : Да
Forced : Нет

Аудио #2
Идентификатор : 4
Формат : AC-3
Формат/Информация : Audio Coding 3
Расширение режима : CM (complete main)
Параметр Endianness формата : Big
Идентификатор кодека : A_AC3
Продолжительность : 2 ч. 21 м.
Вид битрейта : Постоянный
Битрейт : 448 Кбит/сек
Каналы : 6 каналов
Расположение каналов : Front: L C R, Side: L R, LFE
Частота : 48,0 КГц
Частота кадров : 31,250 кадров/сек (1536 spf)
Метод сжатия : С потерями
Размер потока : 453 Мбайт (15%)
Язык : Italian
Default : Нет
Forced : Нет

Текст #1
Идентификатор : 2
Формат : UTF-8
Идентификатор кодека : S_TEXT/UTF8
Идентификатор кодека/Информация : UTF-8 Plain Text
Продолжительность : 2 ч. 11 м.
Битрейт : 83 бит/сек
Count of elements : 1072
Размер потока : 80,9 Кбайт (0%)
Язык : Russian
Default : Нет
Forced : Нет

Текст #2
Идентификатор : 3
Формат : UTF-8
Идентификатор кодека : S_TEXT/UTF8
Идентификатор кодека/Информация : UTF-8 Plain Text
Продолжительность : 2 ч. 11 м.
Битрейт : 44 бит/сек
Count of elements : 1270
Размер потока : 42,7 Кбайт (0%)
Язык : English
Default : Нет
Forced : Нет

Меню
00:00:00.000 : :Opening Logos
00:01:21.664 : :"Our Journey Is Entirely Imaginary"
00:05:17.900 : :Four on the Floor, with Mariachi
00:09:43.124 : :"Happy Birthday, Jep! Happy Birthday, Rome"
00:14:37.710 : :Early Morning Return
00:20:08.290 : :Performance Art
00:21:39.298 : :An Interview with the Artist
00:25:23.855 : :"I Find Romans Unbearable"
00:31:15.707 : :Returns
00:34:22.143 : :A Visit from Elisa's Husband
00:41:36.202 : :"Have You Seen My Daughter"
00:43:01.370 : :Writing Projects
00:46:51.809 : :A Catalog of Lies and Fragility
00:54:18.880 : :A Strip Club
01:00:32.837 : :"Seven Hundred Euros"
01:03:49.659 : :Dinner with Ramona
01:10:52.623 : :Party with Knives
01:15:27.981 : :Carmelina's Work
01:18:21.905 : :The Princesses' Keys
01:23:22.580 : :Rules for a Funeral
01:26:25.889 : :The Funeral
01:29:53.679 : :"It Was Nice Not Making Love"
01:33:48.789 : :Romano's Decision
01:38:37.703 : :A Happy Couple
01:40:46.665 : :Party at Jep's
01:44:21.338 : :Photo Exhibition
01:46:26.046 : :Cardinal Bellucci
01:49:32.190 : :An Arrest, Then Lunch with Dadina
01:52:20.400 : :Audience with Sister Maria
01:56:52.839 : :Jep's Dinner for the Saint
02:02:28.924 : :The Saint Disappears
02:03:44.417 : :Flamingos
02:08:39.920 : :"There's Something I Want to Show You"
02:13:07.604 : :End Credits
скриншот   скриншот   скриншот   скриншот   скриншот   скриншот   скриншот  
pb.wtf



Скачать Великая красота через торрент http://i6.imageban.ru/out/2017/09/18/2ff75c0c358795c5946784cc1680714d.png Скачать фильм Великая красота через торрент бесплантно в хорошем качестве Описание:Аристократки, нувориши, политики, преступники высокого полёта, журналисты, актёры, декаденствующие отпрыски благородных семейств, ... 10 10 11
Info! Золотая раздача, скачанное не засчитывается.
Торрент: Зарегистрирован [2018-01-14 16:57] · скачан: 126 раз
Статус: √ проверено
Размер: 2.99 GB
Как cкачать? Как скачать Великая красота через торрент | UTorrent

% Раздел Тема Автор DL S | L
Фильмы 2013 [DVDrip, WEB-DLRip, HDrip] [ 1.49 GB ] Великая красота / La grande bellezza / The Great Beauty [2013 BDRip-AVC] MVO [] sokol_ok Скачать
3 | 0
Фильмы 2013 [DVDrip, WEB-DLRip, HDrip] [ 762 MB ] Великая красота / La grande bellezza / The Great Beauty [2013 BDRip-AVC] MVO [] sokol_ok Скачать
2 | 0

28-11-2019 20:33  

Отключить всю рекламу на сайте

14-01-2018 16:57 Великая красота Скачать торрент  

Замена на релиз лучшего качества.pb.wtf



15-01-2018 14:33 Великая красота Скачать торрент  

ИТАЛЬЯНКИ страшные блинpb.wtf



22-01-2018 17:26 Великая красота Скачать торрент  

Грандиозный фильм! Паоло Соррентино великолепно обыграл и продолжил *Сладкую жизнь* Феллини, развил ее в современную сатиру тонкую и смешную и от этого заставляющую думать и грустить, показал общую деградацию через деградацию искусства, все снято очень здорово и талантливо. Картинка невероятной красоты, оператору *Браво!*. Игра артистов выше всяких похвал. Фильм совершенно заслуженно собрал много главных призов на самых серьезных фестивалях. Здесь и *Золотая пальмовая ветвь* в Каннах и Оскар и еще много наград. Если вы любите кино, посмотрите или пересмотрите еще раз этот шедевр. Качество рипа хорошее. Огромное спасибо за раздачи фильма разного размера.
P.S. У актриссы Сабрины Ферилли (той, которая играет стриптизершу Рамону) есть официальный сайт. На нем много фотографий, в том числе и ню. Если вы всерьез решили, что итальянки страшные, посмотрите их. http://sabrinaferilli.itpb.wtf



    Дорогой пользователь! Огромная просьба, поблагодарите релизера, оцените раздачу и оставьте свои комментарий, если Вы скачали Великая красота через торрент бесплатно! Внесите свою лепту в развитие PiratBit!
    Комментировать посты могут только пользователи прошедшие не сложную регистрацию
    Показать сообщения:    

    Великая красота через торрент
    Скачать бесплатно Великая красота
    Великая красота скачать торрент
    Великая красота смотреть онлайн
    Cкачать фильм Великая красота бесплатно
    Великая красота скачать торрент в хорошем качестве
    Великая красота смотреть онлайн бесплатно в хорошем качестве


    Вы не можете начинать темы
    Вы не можете отвечать на сообщения
    Вы не можете редактировать свои сообщения
    Вы не можете удалять свои сообщения
    Вы не можете голосовать в опросах
    Вы не можете прикреплять файлы к сообщениям
    Вы можете скачивать файлы