2 сезон

iTunes

MVO

1

2 сезон

iTunes

iTunes

1 сезон

RePack

30

Ultimate

ВАЖНО

ИГРА 18+

pack

RePack

MK11
pack

Легкие деньги

RePack

jed

RePack

fifa19

RePack

RDR2

RePack

NEED FOR SPEED™ PAYBACK

4 сезон

9 сезон

Бесстыжие 9 сезон

Все сериалы

все сериалы на PB.wtf

RePack

FAR CRY 5

Anonymous, добрый день, мы не успеваем собрать деньги на оплату серверов за декабрь и январь, помогите нам пожалуйста в это трудное время. В качестве благодарности мы отключим Вам всю рекламу на сайте (укажите свой ник в строку Ваше имя)!

×
  
Magnet ссылка

Воскрешение / A Resurrection (Мэтт Орландо / Matt Orlando) [ 2013 , США , триллер , HDRip ] DUB [Лицензия] pb.wtf

Воскрешение через торрент pb.wtf

Размер: 1.46 GB | Добавлен: 7 лет 1 мес. назад | Торрент скачан:5483 раза
Скачать  

21-11-2013 21:59 Воскрешение Скачать торрент  

Воскрешение / A ResurrectionГод выпуска: 2013
Страна: США
Жанр: триллер
Продолжительность: 01:30:20
Перевод: Профессиональный (полное дублирование) [Лицензия]
Субтитры: Нет
Режиссер: Мэтт Орландо / Matt Orlando
В ролях: Миша Бартон (Jessie Parker), Девон Сава (Travis), Майкл Кларк Дункан (Addison), Джонатан Майкл Траутмэнн (Eli Driggers), Николас Джендл (Brandon), Стюарт Стоун (Nick), Аланна Романски (Tammy), Морган Волк (Dian), Энни Китрал (The Bruja), Патрик Де Ледебур (Devon), Мэттью Уиллиг (Vince), Бренден М. Смит (Alex)
Описание:
История о подростке, который похоронил своего родного брата, но не хочет признать и поверить в это. С ним долгое время работает психолог, который пытается ему это объяснить, но подросток на каждом сеансе отрицает факт смерти. Вскоре полицейские обнаруживают вскрытую могилу, из которой исчезло тело брата. После этого, по мистическому совпадению, подросток начинает видеть убийства, которые должны совершиться в ближайшее время и рисует их в своих рисунках. Психологи и полиция начинают работать с подростком, но открытие поражает их сознание.
Рейтинг
kinopoisk.ru: 4.060 (965)
imdb.com: 3.80 (862)
MPAA: R - Лицам до 17 лет обязательно присутствие взрослого
Качество: HDRip
Формат: AVI
Видео кодек: XviD
Аудио кодек: AC3
Видео: XviD, 720x360 (2.000), 1854 kbps, 29,970 fps, 0,239 bpp
Аудио: AC3 / 5.1 / 48 kHz / 448 kbps / 16 bit

General
Complete name : D:ТорентыVoskreshenie.2013.D.HDRip.1.46Gb.avi
Format : AVI
Format/Info : Audio Video Interleave
File size : 1.46 GiB
Duration : 1h 30mn
Overall bit rate : 2 314 Kbps
Writing application : VirtualDubMod 1.5.10.2 (build 2540/release)
Writing library : VirtualDubMod build 2540/release

Video
ID : 0
Format : MPEG-4 Visual
Format profile : Advanced Simple@L5
Format settings, BVOP : 2
Format settings, QPel : No
Format settings, GMC : No warppoints
Format settings, Matrix : Default (MPEG)
Codec ID : XVID
Codec ID/Hint : XviD
Duration : 1h 30mn
Bit rate : 1 855 Kbps
Width : 720 pixels
Height : 360 pixels
Display aspect ratio : 2.000
Frame rate : 29.970 fps
Color space : YUV
Chroma subsampling : 4:2:0
Bit depth : 8 bits
Scan type : Progressive
Compression mode : Lossy
Bits/(Pixel*Frame) : 0.239
Stream size : 1.17 GiB (80%)
Writing library : XviD 1.2.1 (UTC 2008-12-04)

Audio
ID : 1
Format : AC-3
Format/Info : Audio Coding 3
Mode extension : CM (complete main)
Codec ID : 2000
Duration : 1h 30mn
Bit rate mode : Constant
Bit rate : 448 Kbps
Channel(s) : 6 channels
Channel positions : Front: L C R, Side: L R, LFE
Sampling rate : 48.0 KHz
Bit depth : 16 bits
Compression mode : Lossy
Stream size : 289 MiB (19%)
Alignment : Split accross interleaves
Interleave, duration : 33 ms (1.00 video frame)
Interleave, preload duration : 500 ms
Трейлеры к фильмам [2013-2014] pb.wtf



Скачать Воскрешение через торрент http://i5.imageban.ru/out/2013/11/22/8c93bdddb1e0adccbfe22e1750a5234f.png Скачать фильм Воскрешение через торрент бесплантно в хорошем качестве Описание: История о подростке, который похоронил своего родного брата, но не хочет признать и поверить в это. С ним долгое время работает ... 9.5 10 122
Info! Золотая раздача, скачанное не засчитывается.
Торрент: Зарегистрирован [2013-11-21 21:59] · скачан: 5 483 раз
Статус: √ проверено
Размер: 1.46 GB
Как cкачать? Как скачать Воскрешение через торрент | UTorrent

% Раздел Тема Автор DL S | L
Фильмы 2013 (Звук TS, Cam, VO, DVO) [ 1.37 GB ] Воскрешение / A Resurrection [2013 HDRip DVO][Петя и Ко] Ворон Скачать
1 | 0


Последний раз редактировалось: Ворон (2013-11-22 12:23), всего редактировалось 2 раз(а)

28-11-2019 20:33  

Отключить всю рекламу на сайте

22-11-2013 00:14 Воскрешение Скачать торрент  

это не только триллер, но ещё и мистикаpb.wtf



22-11-2013 06:38 Воскрешение Скачать торрент  

а почему оригинальное название в шапке не совпадает с названием на постере?pb.wtf



23-11-2013 15:35 Воскрешение Скачать торрент  

Странник
Тебе это действительно так важно ?pb.wtf



28-11-2013 17:11 Воскрешение Скачать торрент  

ManDreams
еще как!pb.wtf



05-12-2013 12:49 Воскрешение Скачать торрент  

Как фильм?pb.wtf



09-12-2013 12:41 Воскрешение Скачать торрент  

глянем. спасибо авторуpb.wtf



14-12-2013 04:00 Воскрешение Скачать торрент  

спасибо,неплохой фильмpb.wtf



14-12-2013 04:25 Воскрешение Скачать торрент  

Плохой фильм, игра актеров никакаяpb.wtf



15-01-2014 18:39 Воскрешение Скачать торрент  

дайте скоростиpb.wtf



21-01-2014 17:49 Воскрешение Скачать торрент  

Фильм никакойpb.wtf



08-02-2014 00:29 Воскрешение Скачать торрент  

однотипная хреньpb.wtf



    Дорогой пользователь! Огромная просьба, поблагодарите релизера, оцените раздачу и оставьте свои комментарий, если Вы скачали Воскрешение через торрент бесплатно! Внесите свою лепту в развитие PiratBit!
    Комментировать посты могут только пользователи прошедшие не сложную регистрацию
    Показать сообщения:    

    Воскрешение через торрент
    Скачать бесплатно Воскрешение
    Воскрешение скачать торрент
    Воскрешение смотреть онлайн
    Cкачать фильм Воскрешение бесплатно
    Воскрешение скачать торрент в хорошем качестве
    Воскрешение смотреть онлайн бесплатно в хорошем качестве


    Вы не можете начинать темы
    Вы не можете отвечать на сообщения
    Вы не можете редактировать свои сообщения
    Вы не можете удалять свои сообщения
    Вы не можете голосовать в опросах
    Вы не можете прикреплять файлы к сообщениям
    Вы можете скачивать файлы