Ссылка на приватное зеркало нашего сайта всего за 1$. Внимание количество ограничено!!!

2 сезон

iTunes

1 сезон

1

iTunes

iTunes

iTunes

1 сезон

RePack

30

ИГРА 18+

pack

ВАЖНО

!!Акция!!

Alien_RageХит недели

RePack

MK11
pack

Забери бонус

RePack

jed

!!Акция!!

Alien_Rage

RePack

fifa19

RePack

Assassins Creed: Odyssey

RePack

NEED FOR SPEED™ PAYBACK

4 сезон

9 сезон

Бесстыжие 9 сезон

Все сериалы

все сериалы на PB.wtf

RePack

FAR CRY 5
  

Департамент / Сезон: 1 / Серии: 16 из 16 (Армен Арутюнян-Елецкий, Михаил Жерневский) [2013, криминальный фильм, SATRip] pb.wtf

Департамент через торрент pb.wtf

Размер: 9.38 GB | Добавлен: 6 лет 10 мес. назад | Торрент скачан:1079 раз
Скачать  

22-11-2013 13:38 Департамент Скачать торрент  

Департамент Год выпуска: 2013
Страна: Россия
Жанр: криминал
Продолжительность: 00:47:42
Перевод: Не требуется
Субтитры: Нет
Режиссер: Армен Арутюнян
В ролях: Семён Шкаликов (Юрий Зеленов, капитан), Дарья Мороз, Сергей Угрюмов, Андрей Соколов, Виктория Толстоганова, Сергей Газаров, Михаил Трухин, Тимофей Трибунцев, Евгений Миллер, Михаил Ефремов, Павел Майков, Сергей Чирков
Описание:
Расследованием преступлений, совершаемых сотрудниками правоохранительных органов, занимается специальная служба - главное управление собственной безопасности. Их работа точно такая же, как и у остальных «обычных» полицейских: сбор данных, оперативная разработка, слежка, прослушка, опросы свидетелей, возбуждение уголовных дел... с одной лишь разницей - сотрудники собственной безопасности работают против своих коллег. Их никто не любит, их только боятся. Они - гласно внедренный в правоохранительную систему страны чужеродный элемент.
Несколько офицеров собственной безопасности работают в атмосфере постоянного недоверия и подозрительности, где каждый шаг нужно просчитывать и продумывать со всех сторон, действовать максимально деликатно и в то же время эффективно. Их успехи только увеличивают пропасть между ними и обычными людьми в форме. В такой ситуации тотального отчуждения коллеги сплачиваются еще сильнее, становятся настоящей командой, без слабых мест...
Рейтинг
Качество: SATRip
Формат: AVI
Видео кодек: XviD
Аудио кодек: MP3
Видео: XviD, 704x368 (1.913), 1499 kbps, 25 fps, 0,232 bpp
Аудио: MP3 / 2.0 / 48 kHz / 192 kbps /

General
Complete name : D:ТорентыДепартамент (2013)Департамент.(01.seriya).2013.XviD.SATRip.by.simka.avi
Format : AVI
Format/Info : Audio Video Interleave
File size : 581 MiB
Duration : 47mn 42s
Overall bit rate : 1 702 Kbps
Writing application : VirtualDubMod 1.5.10.3 | www.virtualdub-fr.org || (build 2550/release)
Writing library : VirtualDubMod build 2550/release

Video
ID : 0
Format : MPEG-4 Visual
Format profile : Advanced Simple@L5
Format settings, BVOP : 1
Format settings, QPel : No
Format settings, GMC : No warppoints
Format settings, Matrix : Default (H.263)
Codec ID : XVID
Codec ID/Hint : XviD
Duration : 47mn 42s
Bit rate : 1 500 Kbps
Width : 704 pixels
Height : 368 pixels
Display aspect ratio : 1.913
Frame rate : 25.000 fps
Color space : YUV
Chroma subsampling : 4:2:0
Bit depth : 8 bits
Scan type : Progressive
Compression mode : Lossy
Bits/(Pixel*Frame) : 0.232
Stream size : 512 MiB (88%)
Writing library : XviD 1.2.1 (UTC 2008-12-04)

Audio
ID : 1
Format : MPEG Audio
Format version : Version 1
Format profile : Layer 3
Mode : Joint stereo
Mode extension : MS Stereo
Codec ID : 55
Codec ID/Hint : MP3
Duration : 47mn 42s
Bit rate mode : Constant
Bit rate : 192 Kbps
Channel(s) : 2 channels
Sampling rate : 48.0 KHz
Compression mode : Lossy
Stream size : 65.5 MiB (11%)
Alignment : Aligned on interleaves
Interleave, duration : 40 ms (1.00 video frame)
Interleave, preload duration : 504 ms
Writing library : LAME3.99r
Encoding settings : -m j -V 4 -q 2 -lowpass 18.6 -b 192

Код:

Внимание! Раздача ведётся путём добавления новых серий; при каждом добавлении создётся новый торрент. Чтобы начать докачку новой серии, пользователям необходимо сделать следующее:

[*]Остановить скачивание,
[*]Удалить старый торрент у себя из клиента (старые серии удалять не надо),
[*]Скачать новый торрент и запустить его у себя в клиенте вместо старого, при этом указать клиенту путь в старую папку куда и должно происходить скачивание новых серий.
Ваш клиент при этом должен произвести хеширование (проверку) старой папки (если не производит сам - помогите ему сделать это), и будет докачивать только те серии которых у вас ещё нет. Старые серии при этом не удаляются, а продолжают раздаваться!

Eсли вы уже удалили старые серии, то предотвратить повторную закачку старых серий можно, отжав галочку в соответсвующих местах при запуске нового торрента. По возможности, желательно не удалять старые серии как можно дольше чтобы релизёр не столько продолжал раздавать старые серии, а смог сконцентрироваться на новых.

pb.wtf



Скачать Департамент через торрент http://i5.imageban.ru/out/2013/11/22/1c90d3cafdfe9d0eb9f9335ad659d287.jpg Скачать фильм Департамент через торрент бесплантно в хорошем качестве Описание: Расследованием преступлений, совершаемых сотрудниками правоохранительных органов, занимается специальная служба - главное ... 9.8 10 31
Info! Золотая раздача, скачанное не засчитывается.
Торрент: Зарегистрирован [2013-12-01 12:56] · скачан: 1 079 раз
Статус: √ проверено
Размер: 9.38 GB
Как cкачать? Как скачать Департамент через торрент | qTorrent



Последний раз редактировалось: Ворон (2013-12-01 12:58), всего редактировалось 1 раз

28-11-2019 20:33  

Отключить всю рекламу на сайте

01-12-2013 13:00 Департамент Скачать торрент  

Добавлена 8,9,10,11,12,13,14.15-я и 16-я серия, Конец!pb.wtf



26-12-2013 14:18 Департамент Скачать торрент  

pb.wtf



03-07-2014 05:24 Департамент Скачать торрент  

pb.wtf



03-07-2014 13:32 Департамент Скачать торрент  

Cпасибо!!!!!!!!!!!! pb.wtf



08-07-2014 11:51 Департамент Скачать торрент  

Спасибо, будем посмотретьpb.wtf



12-08-2014 14:40 Департамент Скачать торрент  

Спасибо, неплохой сериал!! Понравилось. pb.wtf



    Дорогой пользователь! Огромная просьба, поблагодарите релизера, оцените раздачу и оставьте свои комментарий, если Вы скачали Департамент через торрент бесплатно! Внесите свою лепту в развитие PiratBit!
    Комментировать посты могут только пользователи прошедшие не сложную регистрацию
    Показать сообщения:    

    Департамент через торрент
    Скачать бесплатно Департамент
    Департамент скачать торрент
    Департамент смотреть онлайн
    Cкачать фильм Департамент бесплатно
    Департамент скачать торрент в хорошем качестве
    Департамент смотреть онлайн бесплатно в хорошем качестве


    Вы не можете начинать темы
    Вы не можете отвечать на сообщения
    Вы не можете редактировать свои сообщения
    Вы не можете удалять свои сообщения
    Вы не можете голосовать в опросах
    Вы не можете прикреплять файлы к сообщениям
    Вы можете скачивать файлы