Ссылка на приватное зеркало всего за 1$. Внимание количество ограничено!!!

OK

1+1

iTunes

мы

OK

1

WEB-DLRip

Джокер

Пифагор

Ведьмак / The Witcher сериал

Лицензия

ПШазам

ОК

Оно 2

iTunes

30
pack

Вам бонус

ВАЖНО

!!Акция!!

Alien_RageХит недели

RePack

Resident Evil 21

ИГРА 18+

pack

RePack

jed

!!Акция!!

Alien_Rage

RePack

fifa19

RePack

Assassins Creed: Odyssey

RePack

NEED FOR SPEED™ PAYBACK

4 сезон

9 сезон

Бесстыжие 9 сезон

Все сериалы

все сериалы на PB.wtf

RePack

FAR CRY 5
  

Фантом / Phantom (Тодд Робинсон / Todd Robinson) [ 2012 , США , триллер , BDRip [1080p]MVO [лицензия] pb.wtf

Фантом через торрент pb.wtf

Размер: 12.24 GB | Добавлен: 6 лет 1 мес. назад | Торрент скачан:225 раз
Скачать  

22-11-2013 14:00 Фантом Скачать торрент  

Фантом / PhantomГод выпуска: 2012
Страна: США
Жанр: триллер

Продолжительность: 01:38:28
Перевод: Профессиональный (многоголосый, закадровый)
Субтитры: English
Режиссер: Тодд Робинсон / Todd Robinson
В ролях: Эд Харрис (Demi), Дэвид Духовны (Bruni), Уильям Фихтнер (Alex), Лэнс Хенриксен (Markov), Джонатон Шек (Pavlov), Джейсон Бех (Dr. Semak), Дагмара Доминчук (Sophi), Дерек Магияр (Garin), Шон Патрик Флэнери (Tyrtov), Джейсон Грей-Стенфорд (Sasha), Джулиан Адамс (Bavenod), Кип Парду (Yanis)
Описание:
Капитан советской подводной лодки держит в своих руках судьбу всего мира. Вынужденному покинуть свою семью, ему приходится возглавить секретную миссию окутанную тайной...
Рейтинг
kinopoisk.ru: 5.661 (985)
imdb.com: 5.70 (6599)
MPAA: R - Лицам до 17 лет обязательно присутствие взрослого
Качество: BDRip [1080p]
Формат: MKV
Видео кодек: AVC
Аудио кодек: AC3/DTS
Видео: AVC, 1920x816 (2.35:1), 15095 kbps, 23,976 fps, 0,402 bpp
Аудио №1: русский / AC3 / 5.1 / 48 kHz / 384 kbps / 16 bit || MVO [лицензия]
Аудио №2: русский / AC3 / 5.1 / 48 kHz / 448 kbps / 16 bit || - А. Дольский
Аудио №3: английский / DTS / 5.1 / 48 kHz / 1510 kbps / 24 bit- английский
General
Unique ID : 243249366500664555268312579000205635621 (0xB7001FB73C03A3058B752E1EE910F025)
Complete name : D:ТорентыФантом.mkv
Format : Matroska
Format version : Version 2
File size : 12.2 GiB
Duration : 1h 38mn
Overall bit rate : 17.8 Mbps
Movie name : -=POTROKS=-
Encoded date : UTC 2013-11-21 13:49:29
Writing application : mkvmerge v6.3.0 ('You can't stop me!') built on Jun 28 2013 20:09:41
Writing library : libebml v1.3.0 + libmatroska v1.4.0

Video
ID : 1
Format : AVC
Format/Info : Advanced Video Codec
Format profile : High@L4.1
Format settings, CABAC : Yes
Format settings, ReFrames : 5 frames
Codec ID : V_MPEG4/ISO/AVC
Duration : 1h 38mn
Bit rate : 15.1 Mbps
Width : 1 920 pixels
Height : 816 pixels
Display aspect ratio : 2.35:1
Frame rate : 23.976 fps
Color space : YUV
Chroma subsampling : 4:2:0
Bit depth : 8 bits
Scan type : Progressive
Bits/(Pixel*Frame) : 0.402
Stream size : 10.4 GiB (85%)
Writing library : x264 core 132 r2323+704+51 d571b1c tMod [8-bit@4:2:0 X86_64]
Encoding settings : cabac=1 / ref=5 / deblock=1:-3:-3 / analyse=0x3:0x113 / me=umh / subme=11 / psy=1 / fade_compensate=0.00 / psy_rd=1.05:0.00 / mixed_ref=1 / me_range=32 / chroma_me=1 / trellis=2 / 8x8dct=1 / cqm=0 / deadzone=21,11 / fast_pskip=0 / chroma_qp_offset=-2 / threads=36 / lookahead_threads=6 / sliced_threads=0 / nr=0 / decimate=0 / interlaced=0 / bluray_compat=0 / constrained_intra=0 / fgo=0 / bframes=8 / b_pyramid=2 / b_adapt=2 / b_bias=0 / direct=3 / weightb=1 / open_gop=0 / weightp=2 / keyint=240 / keyint_min=24 / scenecut=40 / intra_refresh=0 / rc_lookahead=240 / rc=crf / mbtree=1 / crf=18.3000 / qcomp=0.70 / qpmin=0 / qpmax=69 / qpstep=4 / ip_ratio=1.20 / aq=4:0.85 / aq-sensitivity=10.00 / aq-factor=1.00:1.00:1.00 / aq2=0 / aq3=0
Language : English
Default : Yes
Forced : No

Audio #1
ID : 2
Format : AC-3
Format/Info : Audio Coding 3
Mode extension : CM (complete main)
Codec ID : A_AC3
Duration : 1h 38mn
Bit rate mode : Constant
Bit rate : 384 Kbps
Channel(s) : 6 channels
Channel positions : Front: L C R, Side: L R, LFE
Sampling rate : 48.0 KHz
Bit depth : 16 bits
Compression mode : Lossy
Stream size : 270 MiB (2%)
Title : R5, MVO
Language : Russian
Default : Yes
Forced : No

Audio #2
ID : 3
Format : AC-3
Format/Info : Audio Coding 3
Mode extension : CM (complete main)
Codec ID : A_AC3
Duration : 1h 38mn
Bit rate mode : Constant
Bit rate : 448 Kbps
Channel(s) : 6 channels
Channel positions : Front: L C R, Side: L R, LFE
Sampling rate : 48.0 KHz
Bit depth : 16 bits
Compression mode : Lossy
Stream size : 316 MiB (3%)
Title : AVO | DD 5.1 @ 448 kbps - А. Дольский
Language : Russian
Default : No
Forced : No

Audio #3
ID : 4
Format : DTS
Format/Info : Digital Theater Systems
Codec ID : A_DTS
Duration : 1h 38mn
Bit rate mode : Constant
Bit rate : 1 510 Kbps
Channel(s) : 6 channels
Channel positions : Front: L C R, Side: L R, LFE
Sampling rate : 48.0 KHz
Bit depth : 24 bits
Compression mode : Lossy
Stream size : 1.04 GiB (8%)
Language : English
Default : No
Forced : No

Text
ID : 5
Format : UTF-8
Codec ID : S_TEXT/UTF8
Codec ID/Info : UTF-8 Plain Text
Language : English
Default : No
Forced : No
pb.wtf



Скачать Фантом через торрент http://i2.imageban.ru/out/2013/11/22/4f031102b82e33c53f4c820ab3fc05e2.jpg Скачать фильм Фантом через торрент бесплантно в хорошем качестве Описание: Капитан советской подводной лодки держит в своих руках судьбу всего мира. Вынужденному покинуть свою семью, ему приходится ... 8.7 10 11
Info! Золотая раздача, скачанное не засчитывается.
Торрент: Зарегистрирован [2013-11-22 14:00] · скачан: 225 раз
Статус: √ проверено
Размер: 12.24 GB
Как cкачать? Как скачать Фантом через торрент | qTorrent

% Раздел Тема Автор DL S | L
Фильмы [HD 720p, 1080p] (Хороший звук DUB, MVO) [ 10.45 GB ] Фантомная боль / Phantomschmerz [2009 биография BDRip 1080p by msltel] MVO VO msltel Скачать
1 | 0
Фильмы [HD 720p, 1080p] (Хороший звук DUB, MVO) [ 4.09 GB ] Фантомная боль / Phantomschmerz [2009 биография BDRip 720p by msltel] MVO VO msltel Скачать
1 | 0
Фильмы 2013 [DVDrip, WEB-DLRip, HDrip] [ 2.14 GB ] Фантом / Phantom [2013 BDRip-AVC MOV ] AlexG77 Скачать
1 | 0
Фильмы 2012 [ 1.46 GB ] Фантом / Phantom [2012 HDRip] MVO [лицензия] Ворон Скачать
1 | 0
Фильмы 2013 (Звук TS, Cam, VO, DVO) [ 1.46 GB ] Фантом / Phantom [2013 HDRip MVO] k1z Скачать
1 | 0
Фильмы 2013 [DVDrip, WEB-DLRip, HDrip] [ 744 MB ] Фантом / Phantom [2013 BDRip-AVC] MVO () sokol_ok Скачать
2 | 0
Фильмы (DVD фильмы) [ 5.77 GB ] Фантом / Phantom [2013 DVD9] R5 voovaz Скачать
1 | 0

28-11-2019 20:33  

Отключить всю рекламу на сайте

22-11-2013 15:22 Фантом Скачать торрент  

Спасибо,посмотрим.pb.wtf



22-11-2013 18:58 Фантом Скачать торрент  

no я сегодня не злой.. поэтому просто скажу---- гавнеццо а не кино!!!pb.wtf



    Дорогой пользователь! Огромная просьба, поблагодарите релизера, оцените раздачу и оставьте свои комментарий, если Вы скачали Фантом через торрент бесплатно! Внесите свою лепту в развитие PiratBit!
    Комментировать посты могут только пользователи прошедшие не сложную регистрацию
    Показать сообщения:    

    Фантом через торрент
    Скачать бесплатно Фантом
    Фантом скачать торрент
    Фантом смотреть онлайн
    Cкачать фильм Фантом бесплатно
    Фантом скачать торрент в хорошем качестве
    Фантом смотреть онлайн бесплатно в хорошем качестве


    Вы не можете начинать темы
    Вы не можете отвечать на сообщения
    Вы не можете редактировать свои сообщения
    Вы не можете удалять свои сообщения
    Вы не можете голосовать в опросах
    Вы не можете прикреплять файлы к сообщениям
    Вы можете скачивать файлы