Ссылка на приватное зеркало нашего сайта всего за 1$. Внимание количество ограничено!!!

2 сезон

iTunes

1 сезон

1

2 сезон

2 сезон

iTunes

1 сезон

RePack

30

Ultimate

ВАЖНО

ИГРА 18+

pack

RePack

MK11
pack

Забери бонус

RePack

jed

!!Акция!!

Alien_Rage

RePack

fifa19

RePack

Assassins Creed: Odyssey

RePack

NEED FOR SPEED™ PAYBACK

4 сезон

9 сезон

Бесстыжие 9 сезон

Все сериалы

все сериалы на PB.wtf

RePack

FAR CRY 5
  

Приключения Королевского Стрелка Шарпа / Sharpe's Classic Collection / Серии: 1-16 (16) (Том Клегг) [1993-2008 г., приключения, военный, история, BDRip] MVO [Домашний] pb.wtf

Приключения Королевского Стрелка Шарпа через торрент pb.wtf

Размер: 24.14 GB | Добавлен: 7 лет назад | Торрент скачан:108 раз
Скачать  

22-11-2013 16:16 Приключения Королевского Стрелка Шарпа Скачать торрент  

Приключения Королевского Стрелка Шарпа / Sharpe's Classic Collection
Год выпуска: 1993
Страна: Великобритания
Жанр: приключения, военный, история,
Продолжительность: 16x~01:40:00
Перевод: Профессиональный многоголосый

Режиссер: Том Клегг
Продюссер: Малкольм Крэддок, Тед Чайлдз, Мьюир Сазерленд
Сценарий: Оуэн Харрис, Бернард Корнвэлл

Премьера в мире: 5 мая 1993

http://www.kinopoisk.ru/film/230883/votes/

В ролях: Шон Бин, Брайан Кокс, Дара О’Мэлли, Ассумпта Серна, Дэвид Тротон, Симон Андреу, Майкл Мирс, Джон Тэмс, Джейсон Салки, Пол Трасселл,
Описание: 01.
1809 год. Ричард Шарп, сержант 2-го батальона 95-го стрелкового полка, за спасение жизни сэру Артуру Уэйсли получает звание лейтенанта. Вскоре выясняется, что отданные ему под командование солдаты — это недисциплинированная банда отбросов общества, не собирающаяся его принимать в качестве офицера.
Первое его задание — найти Джеймса Ротшильда, пропавшего в Каса Антигуа агента с ценными бумагами. Тут же Шарп влюбляется в лидера испанских партизан — Терезу Морено

Качество: BDRip
Формат: AVI
Видео кодек: XviD
Аудио кодек: AC3
Видео: 720х400, ~1 850 Kbps, 25.000 fps
Аудио: 48000Hz stereo 192kbps
Релиз от: Аквилифер





Год выпуска: 1993
Страна: Великобритания
Жанр: приключения, военный, история,
Продолжительность: 01:38:44
Перевод: Профессиональный многоголосый

Режиссер: Том Клегг

В ролях: Шон Бин, Брайан Кокс, Дара О’Мэлли, Ассумпта Серна, Майкл Кокрейн, Дэвид Тротон, Мартин Джейкобс, Катя Кабальеро, Майкл Мирс, Джон Тэмс

Описание: 1809 год. Английская армия выдвигается в Испанию. В лагерь прибывает пополнение — Южный Эссекс — ни разу не бывавшие в бою новички под командованием некомпетентного, но богатого сэра Генри Симмерсона. Им поручается простое задание — взорвать мост в Валделакаса. Шарпа, повышенного до звания капитана, приставляют к ним

Качество: BDRip
Формат: AVI
Видео кодек: XviD
Аудио кодек: AC3
Видео: 720х400, ~1 850 Kbps, 25.000 fps
Аудио: 48000Hz stereo 192kbps

General

Complete name : 02.Орел.Шарпа.BDRip.avi
Format : AVI
Format/Info : Audio Video Interleave
File size : 1.46 GiB
Duration : 1h 38mn
Overall bit rate : 2 123 Kbps
Writing application : VirtualDubMod 1.5.10.3 | www.virtualdub-fr.org || (build 2550/release)
Writing library : VirtualDubMod build 2550/release

Video
ID : 0
Format : MPEG-4 Visual
Format profile : Advanced Simple@L5
Format settings, BVOP : 1
Format settings, QPel : No
Format settings, GMC : No warppoints
Format settings, Matrix : Default (MPEG)
Codec ID : XVID
Codec ID/Hint : XviD
Duration : 1h 38mn
Bit rate : 1 921 Kbps
Width : 720 pixels
Height : 400 pixels
Display aspect ratio : 16:9
Frame rate : 25.000 fps
Color space : YUV
Chroma subsampling : 4:2:0
Bit depth : 8 bits
Scan type : Progressive
Compression mode : Lossy
Bits/(Pixel*Frame) : 0.267
Stream size : 1.32 GiB (90%)
Writing library : XviD 1.2.1 (UTC 2008-12-04)

Audio
ID : 1
Format : AC-3
Format/Info : Audio Coding 3
Mode extension : CM (complete main)
Codec ID : 2000
Duration : 1h 38mn
Bit rate mode : Constant
Bit rate : 192 Kbps
Channel(s) : 2 channels
Channel positions : Front: L R
Sampling rate : 48.0 KHz
Bit depth : 16 bits
Compression mode : Lossy
Stream size : 136 MiB (9%)
Alignment : Split accross interleaves
Interleave, duration : 40 ms (1.00 video frame)
Interleave, preload duration : 500 ms
Год выпуска: 1995
Страна: Великобритания
Жанр: приключения, военный, история,
Продолжительность: 01:41:34
Перевод: Профессиональный многоголосый ТВ "Домашний"

Режиссер: Том Клегг

В ролях: Шон Бин, Дара О’Мэлли, Хью Фрейзер, Джон Тэмс, Майкл Мирс, Джейсон Салки, Линдон Дейвис, Хью Росс, Rosaleen Linehan, Джэйн Эшборн
Продолжительность: 01:41:41
Описание: Испания, лето 1813 года. В лагерь прибывают миссис Бесс Нугент с дочерью Элли в поисках своего пропавшего мужа и отца. А Шарп в это время направлен к главарю местных партизан, именующего себя Эль Каско, с заданием обменять ружья на 52 дезертира...

Качество: BDRip
Формат: AVI
Видео кодек: XviD
Аудио кодек: AC3
Видео: 720х400, ~1 850 Kbps, 25.000 fps
Аудио: 48000Hz stereo 192kbps

General
Complete name : 03.Золото.Шарпа.BDRip.avi
Format : AVI
Format/Info : Audio Video Interleave
File size : 1.46 GiB
Duration : 1h 41mn
Overall bit rate : 2 064 Kbps
Writing application : VirtualDubMod 1.5.10.3 | www.virtualdub-fr.org || (build 2550/release)
Writing library : VirtualDubMod build 2550/release

Video
ID : 0
Format : MPEG-4 Visual
Format profile : Advanced Simple@L5
Format settings, BVOP : 1
Format settings, QPel : No
Format settings, GMC : No warppoints
Format settings, Matrix : Default (MPEG)
Codec ID : XVID
Codec ID/Hint : XviD
Duration : 1h 41mn
Bit rate : 1 862 Kbps
Width : 720 pixels
Height : 400 pixels
Display aspect ratio : 16:9
Frame rate : 25.000 fps
Color space : YUV
Chroma subsampling : 4:2:0
Bit depth : 8 bits
Scan type : Progressive
Compression mode : Lossy
Bits/(Pixel*Frame) : 0.259
Stream size : 1.32 GiB (90%)
Writing library : XviD 1.2.1 (UTC 2008-12-04)

Audio
ID : 1
Format : AC-3
Format/Info : Audio Coding 3
Mode extension : CM (complete main)
Codec ID : 2000
Duration : 1h 41mn
Bit rate mode : Constant
Bit rate : 192 Kbps
Channel(s) : 2 channels
Channel positions : Front: L R
Sampling rate : 48.0 KHz
Bit depth : 16 bits
Compression mode : Lossy
Stream size : 139 MiB (9%)
Alignment : Split accross interleaves
Interleave, duration : 40 ms (1.00 video frame)
Interleave, preload duration : 500 ms
Год выпуска: 1995
Страна: Великобритания
Жанр: приключения, военный, история,
Продолжительность: 01:41:34
Перевод: Профессиональный многоголосый ТВ "Домашний"

Режиссер: Том Клегг

В ролях: Шон Бин, Дара О’Мэлли, Хью Фрейзер, Джон Тэмс, Майкл Мирс, Джейсон Салки, Линдон Дейвис, Хью Росс, Rosaleen Linehan, Джэйн Эшборн

Продолжительность: 01:41:52

Описание: Пиренеи, сентябрь 1813 года. Король Испании посылает Веллингтону в качестве дара роту дворцовой охраны, ирландцев, стрелявших до этого разве что на стрельбищах под командованием молодого и смелого, но самоуверенного сверх меры полковника Кайли. К ним приставляют Шарпа и отправляют на пограничный пост. Цель одна - избавиться от них побыстрее, чтобы все дезертировали от греха подальше.

Там же в это время хозяйничает французский бригадный генерал Ги Лю (по кличке «Волк»), с которым Ричард как раз недавно повздорил...

Качество: BDRip
Формат: AVI
Видео кодек: XviD
Аудио кодек: AC3
Видео: 720х400, ~1 850 Kbps, 25.000 fps
Аудио: 48000Hz stereo 192kbps
General
Complete name : 04.Битва.Шарпа.BDRip.avi
Format : AVI
Format/Info : Audio Video Interleave
File size : 1.46 GiB
Duration : 1h 41mn
Overall bit rate : 2 058 Kbps
Writing application : VirtualDubMod 1.5.10.3 | www.virtualdub-fr.org || (build 2550/release)
Writing library : VirtualDubMod build 2550/release

Video
ID : 0
Format : MPEG-4 Visual
Format profile : Advanced Simple@L5
Format settings, BVOP : 1
Format settings, QPel : No
Format settings, GMC : No warppoints
Format settings, Matrix : Default (MPEG)
Codec ID : XVID
Codec ID/Hint : XviD
Duration : 1h 41mn
Bit rate : 1 856 Kbps
Width : 720 pixels
Height : 400 pixels
Display aspect ratio : 16:9
Frame rate : 25.000 fps
Color space : YUV
Chroma subsampling : 4:2:0
Bit depth : 8 bits
Scan type : Progressive
Compression mode : Lossy
Bits/(Pixel*Frame) : 0.258
Stream size : 1.32 GiB (90%)
Writing library : XviD 1.2.1 (UTC 2008-12-04)

Audio
ID : 1
Format : AC-3
Format/Info : Audio Coding 3
Mode extension : CM (complete main)
Codec ID : 2000
Duration : 1h 41mn
Bit rate mode : Constant
Bit rate : 192 Kbps
Channel(s) : 2 channels
Channel positions : Front: L R
Sampling rate : 48.0 KHz
Bit depth : 16 bits
Compression mode : Lossy
Stream size : 140 MiB (9%)
Alignment : Split accross interleaves
Interleave, duration : 40 ms (1.00 video frame)
Interleave, preload duration : 500 ms
Год выпуска: 1994
Страна: Великобритания
Жанр: приключения, военный, история,
Продолжительность: 01:41:34
Перевод: Профессиональный многоголосый ТВ "Домашний"

Режиссер: Том Клегг

В ролях: Шон Бин, Дара О’Мэлли, Хью Фрейзер, Джон Тэмс, Майкл Мирс, Джейсон Салки, Линдон Дейвис, Хью Росс, Rosaleen Linehan, Джэйн Эшборн

Продолжительность: 01:42:05

Описание: Испания, 1812 год. Осада Бадахоса. Шарп узнаёт, что он теперь отец, и дочь находится в городе. Также в составе подкреплений прибывает его заклятый враг ещё по службе в Индии - сержант Обадайя Хэксвилл...

Качество: BDRip
Формат: AVI
Видео кодек: XviD
Аудио кодек: AC3
Видео: 720х400, ~1 850 Kbps, 25.000 fps
Аудио: 48000Hz stereo 192kbps

General
Complete name : 05.Рота.Шарпа.BDRip.avi
Format : AVI
Format/Info : Audio Video Interleave
File size : 1.46 GiB
Duration : 1h 42mn
Overall bit rate : 2 054 Kbps
Writing application : VirtualDubMod 1.5.10.3 | www.virtualdub-fr.org || (build 2550/release)
Writing library : VirtualDubMod build 2550/release

Video
ID : 0
Format : MPEG-4 Visual
Format profile : Advanced Simple@L5
Format settings, BVOP : 1
Format settings, QPel : No
Format settings, GMC : No warppoints
Format settings, Matrix : Default (MPEG)
Codec ID : XVID
Codec ID/Hint : XviD
Duration : 1h 42mn
Bit rate : 1 852 Kbps
Width : 720 pixels
Height : 400 pixels
Display aspect ratio : 16:9
Frame rate : 25.000 fps
Color space : YUV
Chroma subsampling : 4:2:0
Bit depth : 8 bits
Scan type : Progressive
Compression mode : Lossy
Bits/(Pixel*Frame) : 0.257
Stream size : 1.32 GiB (90%)
Writing library : XviD 1.2.1 (UTC 2008-12-04)

Audio
ID : 1
Format : AC-3
Format/Info : Audio Coding 3
Mode extension : CM (complete main)
Codec ID : 2000
Duration : 1h 42mn
Bit rate mode : Constant
Bit rate : 192 Kbps
Channel(s) : 2 channels
Channel positions : Front: L R
Sampling rate : 48.0 KHz
Bit depth : 16 bits
Compression mode : Lossy
Stream size : 140 MiB (9%)
Alignment : Split accross interleaves
Interleave, duration : 40 ms (1.00 video frame)
Interleave, preload duration : 500 ms
Год выпуска: 1995
Страна: Великобритания
Жанр: Приключения, Военный, История
Продолжительность: 01:41:17
Перевод: Профессиональный многоголосый ТВ "Домашний

Режиссер: Том Клегг

Премьера в мире: 7 января 2013

В ролях: Шон Бин, Дара О’Мэлли, Джон Тэмс, Джейсон Салки, Эмили Мортимер, Патрик Фьерри, Джеймс Пьюрфой, Стивен Мур, Хью Росс, Майкл Кокрейн

Описание: Французско-испанская граница, 1813 год. Наполеон посылает своих агентов найти и убить лучшего шпиона англичан - таинственного Эль Марадора.

Качество: BDRip
Формат: AVI
Видео кодек: XviD
Аудио кодек: AC3
Видео:720х400, ~1 850 Kbps, 25.000 fps
Аудио: 48000Hz stereo 192kbps
General
Complete name : 06.Сабля.Шарпа.BDRip.avi
Format : AVI
Format/Info : Audio Video Interleave
File size : 1.46 GiB
Duration : 1h 41mn
Overall bit rate : 2 069 Kbps
Writing application : VirtualDubMod 1.5.10.3 | www.virtualdub-fr.org || (build 2550/release)
Writing library : VirtualDubMod build 2550/release

Video
ID : 0
Format : MPEG-4 Visual
Format profile : Advanced Simple@L5
Format settings, BVOP : 1
Format settings, QPel : No
Format settings, GMC : No warppoints
Format settings, Matrix : Default (MPEG)
Codec ID : XVID
Codec ID/Hint : XviD
Duration : 1h 41mn
Bit rate : 1 868 Kbps
Width : 720 pixels
Height : 400 pixels
Display aspect ratio : 16:9
Frame rate : 25.000 fps
Color space : YUV
Chroma subsampling : 4:2:0
Bit depth : 8 bits
Scan type : Progressive
Compression mode : Lossy
Bits/(Pixel*Frame) : 0.259
Stream size : 1.32 GiB (90%)
Writing library : XviD 1.2.1 (UTC 2008-12-04)

Audio
ID : 1
Format : AC-3
Format/Info : Audio Coding 3
Mode extension : CM (complete main)
Codec ID : 2000
Duration : 1h 41mn
Bit rate mode : Constant
Bit rate : 192 Kbps
Channel(s) : 2 channels
Channel positions : Front: L R
Sampling rate : 48.0 KHz
Bit depth : 16 bits
Compression mode : Lossy
Stream size : 139 MiB (9%)
Alignment : Split accross interleaves
Interleave, duration : 40 ms (1.00 video frame)
Interleave, preload duration : 500 ms
Год выпуска: 1994
Страна: Великобритания
Жанр: Приключения, Военный, История
Продолжительность: 01:41:42
Перевод: Профессиональный многоголосый ТВ "Домашний

Режиссер: Том Клегг

В ролях: Шон Бин, Дара О’Мэлли, Джон Тэмс, Джейсон Салки, Эмили Мортимер, Патрик Фьерри, Джеймс Пьюрфой, Стивен Мур, Хью Росс, Майкл Кокрейн

Описание: Португалия, 1813 год. Банда французских, английских и португальских дезертиров, обосновавшаяся в деревушке Адрадос, взяла в заложники Леди Изабеллу, жену Сэра Артура Фатиндэйла. Шарпа направляют к ним с выкупом..

Качество: BDRip
Формат: AVI
Видео кодек: XviD
Аудио кодек: AC3
Видео: 720х400, ~1 850 Kbps, 25.000 fps
Аудио: 48000Hz stereo 192kbps

General
Complete name : 07.Враг.Шарпа.BDRip.avi
Format : AVI
Format/Info : Audio Video Interleave
File size : 1.46 GiB
Duration : 1h 41mn
Overall bit rate : 2 060 Kbps
Writing application : VirtualDubMod 1.5.10.3 | www.virtualdub-fr.org || (build 2550/release)
Writing library : VirtualDubMod build 2550/release

Video
ID : 0
Format : MPEG-4 Visual
Format profile : Advanced Simple@L5
Format settings, BVOP : 1
Format settings, QPel : No
Format settings, GMC : No warppoints
Format settings, Matrix : Default (MPEG)
Codec ID : XVID
Codec ID/Hint : XviD
Duration : 1h 41mn
Bit rate : 1 859 Kbps
Width : 720 pixels
Height : 400 pixels
Display aspect ratio : 16:9
Frame rate : 25.000 fps
Color space : YUV
Chroma subsampling : 4:2:0
Bit depth : 8 bits
Scan type : Progressive
Compression mode : Lossy
Bits/(Pixel*Frame) : 0.258
Stream size : 1.32 GiB (90%)
Writing library : XviD 1.2.1 (UTC 2008-12-04)

Audio
ID : 1
Format : AC-3
Format/Info : Audio Coding 3
Mode extension : CM (complete main)
Codec ID : 2000
Duration : 1h 41mn
Bit rate mode : Constant
Bit rate : 192 Kbps
Channel(s) : 2 channels
Channel positions : Front: L R
Sampling rate : 48.0 KHz
Bit depth : 16 bits
Compression mode : Lossy
Stream size : 139 MiB (9%)
Alignment : Split accross interleaves
Interleave, duration : 40 ms (1.00 video frame)
Interleave, preload duration : 500 ms
Год выпуска: 1994
Страна: Великобритания
Жанр: Приключения, Военный, История
Продолжительность: 01:41:41
Перевод: Профессиональный многоголосый ТВ "Домашний

Режиссер: Том Клегг

В ролях: Шон Бин, Дара О’Мэлли, Джон Тэмс, Джейсон Салки, Эмили Мортимер, Патрик Фьерри, Джеймс Пьюрфой, Стивен Мур, Хью Росс, Майкл Кокрейн

Описание: Испания, 1813 год. Шарпа вызывает на дуэль испанский гранд, обвинив его в оскорблении и домогательстве в отношении своей жены. Схватку, как вещь противозаконную, прекращают. Но на утро маркиза находят мёртвым в своём шатре. Шарпа признают виновным и приговаривают к смерти через повешение...

Качество: BDRip
Формат: AVI
Видео кодек: XviD
Аудио кодек: AC3
Видео: 720х400, ~1 850 Kbps, 25.000 fps
Аудио: 48000Hz stereo 192kbps

General
Complete name : 08.Честь.Шарпа.BDRip.avi
Format : AVI
Format/Info : Audio Video Interleave
File size : 1.46 GiB
Duration : 1h 41mn
Overall bit rate : 2 061 Kbps
Writing application : VirtualDubMod 1.5.10.3 | www.virtualdub-fr.org || (build 2550/release)
Writing library : VirtualDubMod build 2550/release

Video
ID : 0
Format : MPEG-4 Visual
Format profile : Advanced Simple@L5
Format settings, BVOP : 1
Format settings, QPel : No
Format settings, GMC : No warppoints
Format settings, Matrix : Default (MPEG)
Codec ID : XVID
Codec ID/Hint : XviD
Duration : 1h 41mn
Bit rate : 1 859 Kbps
Width : 720 pixels
Height : 400 pixels
Display aspect ratio : 16:9
Frame rate : 25.000 fps
Color space : YUV
Chroma subsampling : 4:2:0
Bit depth : 8 bits
Scan type : Progressive
Compression mode : Lossy
Bits/(Pixel*Frame) : 0.258
Stream size : 1.32 GiB (90%)
Writing library : XviD 1.2.1 (UTC 2008-12-04)

Audio
ID : 1
Format : AC-3
Format/Info : Audio Coding 3
Mode extension : CM (complete main)
Codec ID : 2000
Duration : 1h 41mn
Bit rate mode : Constant
Bit rate : 192 Kbps
Channel(s) : 2 channels
Channel positions : Front: L R
Sampling rate : 48.0 KHz
Bit depth : 16 bits
Compression mode : Lossy
Stream size : 140 MiB (9%)
Alignment : Split accross interleaves
Interleave, duration : 40 ms (1.00 video frame)
Interleave, preload duration : 500 ms
Год выпуска: 1996
Страна: Великобритания
Жанр: Приключения, Военный, История
Продолжительность: 01:41:51
Перевод: Профессиональный многоголосый ТВ "Домашний

Режиссер: Том Клегг

В ролях: Шон Бин, Дара О’Мэлли, Джон Тэмс, Джейсон Салки, Эмили Мортимер, Патрик Фьерри, Джеймс Пьюрфой, Стивен Мур, Хью Росс, Майкл Кокрейн

Описание: Июнь 1813 года. Шарп и Харпер отправляются в Англию для пополнения сильно поредевшего Южного Эссекса. Их направляют в Челмсфолд, где должны ждать 700 человек. По прибытию же они обнаруживают только 11...

Качество: BDRip
Формат: AVI
Видео кодек: XviD
Аудио кодек: AC3
Видео: 720х400, ~1 850 Kbps, 25.000 fps
Аудио: 48000Hz stereo 192kbps

General
Complete name : 09.Полк.Шарпа.BDRip.avi
Format : AVI
Format/Info : Audio Video Interleave
File size : 1.46 GiB
Duration : 1h 41mn
Overall bit rate : 2 058 Kbps
Writing application : VirtualDubMod 1.5.10.3 | www.virtualdub-fr.org || (build 2550/release)
Writing library : VirtualDubMod build 2550/release

Video
ID : 0
Format : MPEG-4 Visual
Format profile : Advanced Simple@L5
Format settings, BVOP : 1
Format settings, QPel : No
Format settings, GMC : No warppoints
Format settings, Matrix : Default (MPEG)
Codec ID : XVID
Codec ID/Hint : XviD
Duration : 1h 41mn
Bit rate : 1 856 Kbps
Width : 720 pixels
Height : 400 pixels
Display aspect ratio : 16:9
Frame rate : 25.000 fps
Color space : YUV
Chroma subsampling : 4:2:0
Bit depth : 8 bits
Scan type : Progressive
Compression mode : Lossy
Bits/(Pixel*Frame) : 0.258
Stream size : 1.32 GiB (90%)
Writing library : XviD 1.2.1 (UTC 2008-12-04)

Audio
ID : 1
Format : AC-3
Format/Info : Audio Coding 3
Mode extension : CM (complete main)
Codec ID : 2000
Duration : 1h 41mn
Bit rate mode : Constant
Bit rate : 192 Kbps
Channel(s) : 2 channels
Channel positions : Front: L R
Sampling rate : 48.0 KHz
Bit depth : 16 bits
Compression mode : Lossy
Stream size : 140 MiB (9%)
Alignment : Split accross interleaves
Interleave, duration : 40 ms (1.00 video frame)
Interleave, preload duration : 500 ms
Год выпуска: 1996
Страна: Великобритания
Жанр: Приключения, Военный, История
Продолжительность: 01:41:51
Перевод: Профессиональный многоголосый ТВ "Домашний

Режиссер: Том Клегг

В ролях: Шон Бин, Дара О’Мэлли, Джон Тэмс, Джейсон Салки, Эмили Мортимер, Патрик Фьерри, Джеймс Пьюрфой, Стивен Мур, Хью Росс, Майкл Кокрейн

Описание: Зима 1813 года. Французский граф уверяет Веллингтона, что его провинция, Бордо, готова восстать против правления Наполеона. Лишь его замок удерживают лояльные Бонапарту мать и сестра. Полковник Бампфилд, под командование которого направлен Шарп, выдвигается с целью захватить замок, который впоследствие планируется использовать в качестве базы для дальнейших наступлений...

Качество: BDRip
Формат: AVI
Видео кодек: XviD
Аудио кодек: AC3
Видео: 720х400, ~1 850 Kbps, 25.000 fps
Аудио: 48000Hz stereo 192kbps

General
Complete name :10.Осада.Шарпа.BDRip.avi
Format : AVI
Format/Info : Audio Video Interleave
File size : 1.46 GiB
Duration : 1h 41mn
Overall bit rate : 2 058 Kbps
Writing application : VirtualDubMod 1.5.10.3 | www.virtualdub-fr.org || (build 2550/release)
Writing library : VirtualDubMod build 2550/release

Video
ID : 0
Format : MPEG-4 Visual
Format profile : Advanced Simple@L5
Format settings, BVOP : 1
Format settings, QPel : No
Format settings, GMC : No warppoints
Format settings, Matrix : Default (MPEG)
Codec ID : XVID
Codec ID/Hint : XviD
Duration : 1h 41mn
Bit rate : 1 856 Kbps
Width : 720 pixels
Height : 400 pixels
Display aspect ratio : 16:9
Frame rate : 25.000 fps
Color space : YUV
Chroma subsampling : 4:2:0
Bit depth : 8 bits
Scan type : Progressive
Compression mode : Lossy
Bits/(Pixel*Frame) : 0.258
Stream size : 1.32 GiB (90%)
Writing library : XviD 1.2.1 (UTC 2008-12-04)

Audio
ID : 1
Format : AC-3
Format/Info : Audio Coding 3
Mode extension : CM (complete main)
Codec ID : 2000
Duration : 1h 41mn
Bit rate mode : Constant
Bit rate : 192 Kbps
Channel(s) : 2 channels
Channel positions : Front: L R
Sampling rate : 48.0 KHz
Bit depth : 16 bits
Compression mode : Lossy
Stream size : 140 MiB (9%)
Alignment : Split accross interleaves
Interleave, duration : 40 ms (1.00 video frame)
Interleave, preload duration : 500 ms
Год выпуска: 1997
Страна: Великобритания
Жанр: Приключения, Военный, История
Продолжительность: 01:41:14

Перевод: Профессиональный многоголосый ТВ "Домашний

Режиссер: Том Клегг

В ролях:Шон Бин, Дара О’Мэлли, Эбигейл Круттенден, Филип Уитчёрч, Сесиль Паоли, Алексис Денисоф, Феодор Аткин, Джеймс Лоренсон, Джон Бенфилд, Конни Хайд

Описание: Франция, апрель 1814 года. Последний лояльный Наполеону город пал. Шарпа обвиняют в нападении на французский конвой и краже казны Бонапарта. Подстроено это его старым врагом майором Дюко. Но с помощью друзей Шарп сбегает и пытается оправдать своё имя...

Качество: BDRip
Формат: AVI
Видео кодек: XviD
Аудио кодек: AC3
Видео: 720х400, ~1 850 Kbps, 25.000 fps
Аудио: 48000Hz stereo 192kbps

Год выпуска: 1997
Страна: Великобритания
Жанр: Приключения, Военный, История
Продолжительность: 01:41:47
Перевод: Профессиональный многоголосый ТВ "Домашний

Режиссер: Том Клегг

В ролях:Шон Бин, Дара О’Мэлли, Эбигейл Круттенден, Филип Уитчёрч, Сесиль Паоли, Алексис Денисоф, Феодор Аткин, Джеймс Лоренсон, Джон Бенфилд, Конни Хайд

Описание: Франция, апрель 1814 года. Последний лояльный Наполеону город пал. Шарпа обвиняют в нападении на французский конвой и краже казны Бонапарта. Подстроено это его старым врагом майором Дюко. Но с помощью друзей Шарп сбегает и пытается оправдать своё имя...

Качество: BDRip
Формат: AVI
Видео кодек: XviD
Аудио кодек: AC3
Видео: 720х400, ~1 850 Kbps, 25.000 fps
Аудио: 48000Hz stereo 192kbps
Год выпуска: 1997
Страна: Великобритания
Жанр: Приключения, Военный, История
Продолжительность: 01:41:32
Перевод: Профессиональный многоголосый ТВ "Домашний

Режиссер: Том Клегг

В ролях:Шон Бин, Дара О’Мэлли, Эбигейл Круттенден, Филип Уитчёрч, Сесиль Паоли, Алексис Денисоф, Феодор Аткин, Джеймс Лоренсон, Джон Бенфилд, Конни Хайд

Описание: Англия, лето 1814 года. Война окончена, Наполеон в ссылке на Эльбе. Шарп получает назначение в Йоркшире, своём родном городе...

Качество: BDRip
Формат: AVI
Видео кодек: XviD
Аудио кодек: AC3
Видео: 720х400, ~1 850 Kbps, 25.000 fps
Аудио: 48000Hz stereo 192kbps

Год выпуска: 1997
Страна: Великобритания
Жанр: Приключения, Военный, История
Продолжительность: 01:41:20
Перевод: Профессиональный многоголосый ТВ "Домашний

Режиссер: Том Клегг

В ролях:Шон Бин, Дара О’Мэлли, Эбигейл Круттенден, Филип Уитчёрч, Сесиль Паоли, Алексис Денисоф, Феодор Аткин, Джеймс Лоренсон, Джон Бенфилд, Конни Хайд

Описание: Англия, лето 1814 года. Война окончена, Наполеон в ссылке на Эльбе. Шарп получает назначение в Йоркшире, своём родном городе...

Качество: BDRip
Формат: AVI
Видео кодек: XviD
Аудио кодек: AC3
Видео: 720х400, ~1 850 Kbps, 25.000 fps
Аудио: 48000Hz stereo 192kbps
General
Complete name :14.Ватерлоо.Шарпа.BDRip.avi
Format : AVI
Format/Info : Audio Video Interleave
File size : 1.46 GiB
Duration : 1h 41mn
Overall bit rate : 2 068 Kbps
Writing application : VirtualDubMod 1.5.10.3 | www.virtualdub-fr.org || (build 2550/release)
Writing library : VirtualDubMod build 2550/release

Video
ID : 0
Format : MPEG-4 Visual
Format profile : Advanced Simple@L5
Format settings, BVOP : 1
Format settings, QPel : No
Format settings, GMC : No warppoints
Format settings, Matrix : Default (MPEG)
Codec ID : XVID
Codec ID/Hint : XviD
Duration : 1h 41mn
Bit rate : 1 866 Kbps
Width : 720 pixels
Height : 400 pixels
Display aspect ratio : 16:9
Frame rate : 25.000 fps
Color space : YUV
Chroma subsampling : 4:2:0
Bit depth : 8 bits
Scan type : Progressive
Compression mode : Lossy
Bits/(Pixel*Frame) : 0.259
Stream size : 1.32 GiB (90%)
Writing library : XviD 1.2.1 (UTC 2008-12-04)

Audio
ID : 1
Format : AC-3
Format/Info : Audio Coding 3
Mode extension : CM (complete main)
Codec ID : 2000
Duration : 1h 41mn
Bit rate mode : Constant
Bit rate : 192 Kbps
Channel(s) : 2 channels
Channel positions : Front: L R
Sampling rate : 48.0 KHz
Bit depth : 16 bits
Compression mode : Lossy
Stream size : 139 MiB (9%)
Alignment : Split accross interleaves
Interleave, duration : 40 ms (1.00 video frame)
Interleave, preload duration : 500 ms
Год выпуска: 2006
Страна: Великобритания
Жанр: Приключения, Военный, История
Продолжительность: 01:45:47
Перевод: Профессиональный многоголосый ТВ "Домашний

Режиссер: Том Клегг

В ролях:Шон Бин, Дара О’Мэлли, Эбигейл Круттенден, Филип Уитчёрч, Сесиль Паоли, Алексис Денисоф, Феодор Аткин, Джеймс Лоренсон, Джон Бенфилд, Конни Хайд

Описание: 1817 год. Прошло всего два года с момента, когда Наполеон был окончательно разгромлен в битве при Ватерлоо. Но для настоящих солдат империи всегда найдется работа. На этот раз Ричард Шарп отправляется в Индию. Ему предстоит выяснить, какие козни против британской короны замышляет один из тамошних наследных принцев. По прибытии в штат Раджастан бравого стрелка ждет неприятный сюрприз. Похищена дочь генерал-губернатора. Все силы брошены на поиски. Между тем обстановка все больше накаляется, зреют повстанческие настроения, и миссия становится все менее выполнимой…

Качество: BDRip
Формат: AVI
Видео кодек: XviD
Аудио кодек: AC3
Видео:720х400, ~1 850 Kbps, 23.98fps fps
Аудио:48000Hz stereo 192kbps
General
Complete name : 15.Испытание.Королевского.Стрелка.Шарпа.BDRip.avi
Format : AVI
Format/Info : Audio Video Interleave
File size : 1.46 GiB
Duration : 1h 45mn
Overall bit rate : 1 981 Kbps
Writing application : VirtualDubMod 1.5.10.3 | www.virtualdub-fr.org || (build 2550/release)
Writing library : VirtualDubMod build 2550/release

Video
ID : 0
Format : MPEG-4 Visual
Format profile : Advanced Simple@L5
Format settings, BVOP : 1
Format settings, QPel : No
Format settings, GMC : No warppoints
Format settings, Matrix : Default (MPEG)
Codec ID : XVID
Codec ID/Hint : XviD
Duration : 1h 45mn
Bit rate : 1 780 Kbps
Width : 720 pixels
Height : 400 pixels
Display aspect ratio : 16:9
Frame rate : 23.976 fps
Color space : YUV
Chroma subsampling : 4:2:0
Bit depth : 8 bits
Scan type : Progressive
Compression mode : Lossy
Bits/(Pixel*Frame) : 0.258
Stream size : 1.31 GiB (90%)
Writing library : XviD 1.2.1 (UTC 2008-12-04)

Audio
ID : 1
Format : AC-3
Format/Info : Audio Coding 3
Mode extension : CM (complete main)
Codec ID : 2000
Duration : 1h 45mn
Bit rate mode : Constant
Bit rate : 192 Kbps
Channel(s) : 2 channels
Channel positions : Front: L R
Sampling rate : 48.0 KHz
Bit depth : 16 bits
Compression mode : Lossy
Stream size : 145 MiB (10%)
Alignment : Split accross interleaves
Interleave, duration : 42 ms (1.00 video frame)
Interleave, preload duration : 500 ms
Год выпуска: 2008
Страна: Великобритания
Жанр: Приключения, Военный, История
Продолжительность: 01:08:46 + 01:08:53
Перевод: Профессиональный многоголосый ТВ "Домашний

Режиссер: Том Клегг

В ролях:Шон Бин, Дара О’Мэлли, Майкл Кокрейн, Велибор Топик, Беатрис Розен, Раза Джеффри, Стив Спайрс, Дэвид Робб, Кэролайн Карвер, Люк Уорд-Уилкинсон

Описание: Индия, 1818. Полковник Ричард Шарп и сержант Патрик Харпер сопровождают прекрасную Мари-Анжелину Бонне к ее жениху. Во время путешествия они встречают изрядно потрепанные остатки королевских войск: грязное и оборванное, практически неуправляемое подразделение во главе с безнадежно юным Бокле. Во время ужина лагерь был атакован знаменитым бандитом Читу.
Когда дым рассеивается, взору Шарпа открывается безрадостная картина: отовсюду доносятся стоны раненых. Королевский стрелок понимает, что только он сможет доставить обоз до армейского гарнизона. Он и не догадывается, что приключение только началось, ведь ему предстоит столкнуться не с горсткой разбойников, а с беспощадной бандой торговцев опиумом.

Качество: BDRip
Формат: AVI
Видео кодек: XviD
Аудио кодек: AC3
Видео: 720х400, ~2 070 Kbps, 25.000 fps
Аудио: 48000Hz stereo 192kbps
General
Complete name :16.Риск.Стрелка.Шарпа.01.BDRip.avi
Format : AVI
Format/Info : Audio Video Interleave
File size : 1.09 GiB
Duration : 1h 8mn
Overall bit rate : 2 272 Kbps
Writing application : VirtualDubMod 1.5.10.3 | www.virtualdub-fr.org || (build 2550/release)
Writing library : VirtualDubMod build 2550/release

Video
ID : 0
Format : MPEG-4 Visual
Format profile : Advanced Simple@L5
Format settings, BVOP : 1
Format settings, QPel : No
Format settings, GMC : No warppoints
Format settings, Matrix : Default (MPEG)
Codec ID : XVID
Codec ID/Hint : XviD
Duration : 1h 8mn
Bit rate : 2 070 Kbps
Width : 720 pixels
Height : 400 pixels
Display aspect ratio : 16:9
Frame rate : 25.000 fps
Color space : YUV
Chroma subsampling : 4:2:0
Bit depth : 8 bits
Scan type : Progressive
Compression mode : Lossy
Bits/(Pixel*Frame) : 0.287
Stream size : 1 018 MiB (91%)
Writing library : XviD 1.2.1 (UTC 2008-12-04)

Audio
ID : 1
Format : AC-3
Format/Info : Audio Coding 3
Mode extension : CM (complete main)
Codec ID : 2000
Duration : 1h 8mn
Bit rate mode : Constant
Bit rate : 192 Kbps
Channel(s) : 2 channels
Channel positions : Front: L R
Sampling rate : 48.0 KHz
Bit depth : 16 bits
Compression mode : Lossy
Stream size : 94.5 MiB (8%)
Alignment : Split accross interleaves
Interleave, duration : 40 ms (1.00 video frame)
Interleave, preload duration : 500 ms
pb.wtf



Скачать Приключения Королевского Стрелка Шарпа через торрент http://pic.kartinco.top/images/6/lcwyi.jpg Скачать фильм Приключения Королевского Стрелка Шарпа через торрент бесплантно в хорошем качестве Описание: 1809 год. Ричард Шарп, сержант 2-го батальона 95-го стрелкового полка, за спасение жизни сэру Артуру Уэйсли получает звание ... 9.9 10 10
Info! Золотая раздача, скачанное не засчитывается.
Торрент: Зарегистрирован [2013-11-22 18:50] · скачан: 108 раз
Статус: √ проверено
Размер: 24.14 GB
Как cкачать? Как скачать Приключения Королевского Стрелка Шарпа через торрент | qTorrent



Последний раз редактировалось: lug30 (2013-11-25 11:51), всего редактировалось 133 раз(а)

28-11-2019 20:33  

Отключить всю рекламу на сайте

22-11-2013 16:33 Приключения Королевского Стрелка Шарпа Скачать торрент  

General
Complete name :01.Стрелки.Шарпа.BDRip.avi
Format : AVI
Format/Info : Audio Video Interleave
File size : 1.46 GiB
Duration : 1h 40mn
Overall bit rate : 2 076 Kbps
Writing application : VirtualDubMod 1.5.10.3 | www.virtualdub-fr.org || (build 2550/release)
Writing library : VirtualDubMod build 2550/release

Video
ID : 0
Format : MPEG-4 Visual
Format profile : Advanced Simple@L5
Format settings, BVOP : 1
Format settings, QPel : No
Format settings, GMC : No warppoints
Format settings, Matrix : Default (MPEG)
Codec ID : XVID
Codec ID/Hint : XviD
Duration : 1h 40mn
Bit rate : 1 874 Kbps
Width : 720 pixels
Height : 400 pixels
Display aspect ratio : 16:9
Frame rate : 25.000 fps
Color space : YUV
Chroma subsampling : 4:2:0
Bit depth : 8 bits
Scan type : Progressive
Compression mode : Lossy
Bits/(Pixel*Frame) : 0.260
Stream size : 1.32 GiB (90%)
Writing library : XviD 1.2.1 (UTC 2008-12-04)

Audio
ID : 1
Format : AC-3
Format/Info : Audio Coding 3
Mode extension : CM (complete main)
Codec ID : 2000
Duration : 1h 40mn
Bit rate mode : Constant
Bit rate : 192 Kbps
Channel(s) : 2 channels
Channel positions : Front: L R
Sampling rate : 48.0 KHz
Bit depth : 16 bits
Compression mode : Lossy
Stream size : 139 MiB (9%)
Alignment : Split accross interleaves
Interleave, duration : 40 ms (1.00 video frame)
Interleave, preload duration : 500 ms
General
Complete name :11.Миссия.Шарпа.BDRip.avi
Format : AVI
Format/Info : Audio Video Interleave
File size : 1.46 GiB
Duration : 1h 41mn
Overall bit rate : 2 070 Kbps
Writing application : VirtualDubMod 1.5.10.3 | www.virtualdub-fr.org || (build 2550/release)
Writing library : VirtualDubMod build 2550/release

Video
ID : 0
Format : MPEG-4 Visual
Format profile : Advanced Simple@L5
Format settings, BVOP : 1
Format settings, QPel : No
Format settings, GMC : No warppoints
Format settings, Matrix : Default (MPEG)
Codec ID : XVID
Codec ID/Hint : XviD
Duration : 1h 41mn
Bit rate : 1 868 Kbps
Width : 720 pixels
Height : 400 pixels
Display aspect ratio : 16:9
Frame rate : 25.000 fps
Color space : YUV
Chroma subsampling : 4:2:0
Bit depth : 8 bits
Scan type : Progressive
Compression mode : Lossy
Bits/(Pixel*Frame) : 0.259
Stream size : 1.32 GiB (90%)
Writing library : XviD 1.2.1 (UTC 2008-12-04)

Audio
ID : 1
Format : AC-3
Format/Info : Audio Coding 3
Mode extension : CM (complete main)
Codec ID : 2000
Duration : 1h 41mn
Bit rate mode : Constant
Bit rate : 192 Kbps
Channel(s) : 2 channels
Channel positions : Front: L R
Sampling rate : 48.0 KHz
Bit depth : 16 bits
Compression mode : Lossy
Stream size : 139 MiB (9%)
Alignment : Split accross interleaves
Interleave, duration : 40 ms (1.00 video frame)
Interleave, preload duration : 500 ms
General
Complete name :12.Месть.Шарпа.BDRip.avi
Format : AVI
Format/Info : Audio Video Interleave
File size : 1.46 GiB
Duration : 1h 41mn
Overall bit rate : 2 059 Kbps
Writing application : VirtualDubMod 1.5.10.3 | www.virtualdub-fr.org || (build 2550/release)
Writing library : VirtualDubMod build 2550/release

Video
ID : 0
Format : MPEG-4 Visual
Format profile : Advanced Simple@L5
Format settings, BVOP : 1
Format settings, QPel : No
Format settings, GMC : No warppoints
Format settings, Matrix : Default (MPEG)
Codec ID : XVID
Codec ID/Hint : XviD
Duration : 1h 41mn
Bit rate : 1 857 Kbps
Width : 720 pixels
Height : 400 pixels
Display aspect ratio : 16:9
Frame rate : 25.000 fps
Color space : YUV
Chroma subsampling : 4:2:0
Bit depth : 8 bits
Scan type : Progressive
Compression mode : Lossy
Bits/(Pixel*Frame) : 0.258
Stream size : 1.32 GiB (90%)
Writing library : XviD 1.2.1 (UTC 2008-12-04)

Audio
ID : 1
Format : AC-3
Format/Info : Audio Coding 3
Mode extension : CM (complete main)
Codec ID : 2000
Duration : 1h 41mn
Bit rate mode : Constant
Bit rate : 192 Kbps
Channel(s) : 2 channels
Channel positions : Front: L R
Sampling rate : 48.0 KHz
Bit depth : 16 bits
Compression mode : Lossy
Stream size : 140 MiB (9%)
Alignment : Split accross interleaves
Interleave, duration : 40 ms (1.00 video frame)
Interleave, preload duration : 500 ms
General
Complete name :13.Правосудие.Шарпа.BDRip.avi
Format : AVI
Format/Info : Audio Video Interleave
File size : 1.46 GiB
Duration : 1h 41mn
Overall bit rate : 2 064 Kbps
Writing application : VirtualDubMod 1.5.10.3 | www.virtualdub-fr.org || (build 2550/release)
Writing library : VirtualDubMod build 2550/release

Video
ID : 0
Format : MPEG-4 Visual
Format profile : Advanced Simple@L5
Format settings, BVOP : 1
Format settings, QPel : No
Format settings, GMC : No warppoints
Format settings, Matrix : Default (MPEG)
Codec ID : XVID
Codec ID/Hint : XviD
Duration : 1h 41mn
Bit rate : 1 862 Kbps
Width : 720 pixels
Height : 400 pixels
Display aspect ratio : 16:9
Frame rate : 25.000 fps
Color space : YUV
Chroma subsampling : 4:2:0
Bit depth : 8 bits
Scan type : Progressive
Compression mode : Lossy
Bits/(Pixel*Frame) : 0.259
Stream size : 1.32 GiB (90%)
Writing library : XviD 1.2.1 (UTC 2008-12-04)

Audio
ID : 1
Format : AC-3
Format/Info : Audio Coding 3
Mode extension : CM (complete main)
Codec ID : 2000
Duration : 1h 41mn
Bit rate mode : Constant
Bit rate : 192 Kbps
Channel(s) : 2 channels
Channel positions : Front: L R
Sampling rate : 48.0 KHz
Bit depth : 16 bits
Compression mode : Lossy
Stream size : 139 MiB (9%)
Alignment : Split accross interleaves
Interleave, duration : 40 ms (1.00 video frame)
Interleave, preload duration : 500 ms
pb.wtf





Последний раз редактировалось: Messa-fan (2013-11-25 13:02), всего редактировалось 6 раз(а)

22-11-2013 16:47 Приключения Королевского Стрелка Шарпа Скачать торрент  

Спс,отличный сериалpb.wtf



22-11-2013 20:04 Приключения Королевского Стрелка Шарпа Скачать торрент  

Кинуха офигенная. Смотрел еще по телеку в лохматые времена.pb.wtf



26-11-2013 13:58 Приключения Королевского Стрелка Шарпа Скачать торрент  

666gtr666 писал(а):

Кинуха офигенная. Смотрел еще по телеку в лохматые времена.

Описание: Сериал по романам Бернарда Корнвелла. Ричард Шарп родился в июле 1777 года недалеко от Ховик Плейс, Вестминстер, Лондон. Его отец неизвестен, а мать была проституткой и умерла в июне 1780, когда Ричарду было 3 года. Его отдали в приют, откуда он сбежал в возрасте 9 лет и 7 лет скитался по лондонским трущобам. В шестнадцать лет он убил человека и бежал в Йоркшир, спасаясь от петли палача. Там он присоединился к британской армии и начались его новые приключения. “Кому нужен Шон Коннери, когда у нас есть Шон Бин” и “Джеймс Бонд XIX века” - так анонсировали очередную серию “Шарпа” на британском ТВ. В российском прокате (ОРТ показало первые восемь серий осенью 1995 года) сериал назывался “Приключения королевского стрелка Шарпа”, поскольку телевизионные начальники углядели в оригинальном названии сериала -“Шарп” - скрытую рекламу.pb.wtf



20-04-2015 12:06 Приключения Королевского Стрелка Шарпа Скачать торрент  

Пожалуйста, встаньте кто-нибудь на раздачу! Так хочется иметь полную версию этого качественного исторического сериала...pb.wtf



17-05-2015 18:18 Приключения Королевского Стрелка Шарпа Скачать торрент  

Раздавать то кто-нибудь будет??????pb.wtf



18-05-2015 03:08 Приключения Королевского Стрелка Шарпа Скачать торрент  

Так никто и не отозвался,пришлось искать другие источники :declare:pb.wtf



    Дорогой пользователь! Огромная просьба, поблагодарите релизера, оцените раздачу и оставьте свои комментарий, если Вы скачали Приключения Королевского Стрелка Шарпа через торрент бесплатно! Внесите свою лепту в развитие PiratBit!
    Комментировать посты могут только пользователи прошедшие не сложную регистрацию
    Показать сообщения:    

    Приключения Королевского Стрелка Шарпа через торрент
    Скачать бесплатно Приключения Королевского Стрелка Шарпа
    Приключения Королевского Стрелка Шарпа скачать торрент
    Приключения Королевского Стрелка Шарпа смотреть онлайн
    Cкачать фильм Приключения Королевского Стрелка Шарпа бесплатно
    Приключения Королевского Стрелка Шарпа скачать торрент в хорошем качестве
    Приключения Королевского Стрелка Шарпа смотреть онлайн бесплатно в хорошем качестве


    Вы не можете начинать темы
    Вы не можете отвечать на сообщения
    Вы не можете редактировать свои сообщения
    Вы не можете удалять свои сообщения
    Вы не можете голосовать в опросах
    Вы не можете прикреплять файлы к сообщениям
    Вы можете скачивать файлы