2 сезон

iTunes

MVO

1

2 сезон

iTunes

1 сезон

1 сезон

RePack

30

Новинка

ВАЖНО

ИГРА 18+

pack

RePack

MK11
pack

Легкие деньги

RePack

jed

RePack

fifa19

RePack

RDR2

RePack

NEED FOR SPEED™ PAYBACK

4 сезон

9 сезон

Бесстыжие 9 сезон

Все сериалы

все сериалы на PB.wtf

RePack

FAR CRY 5

Anonymous, добрый вечер, мы не успеваем собрать деньги на оплату серверов за декабрь и январь, помогите нам пожалуйста в это трудное время. В качестве благодарности мы отключим Вам всю рекламу на сайте (укажите свой ник в строку Ваше имя)!

×
  
Magnet ссылка

(Не)жданный принц / Un prince (presque) charmant (Филипп Леллуш / Philippe Lellouche) [ 2013 , Франция , комедия, мелодрама , DVDRip ] DUB [лицензия] pb.wtf

через торрент pb.wtf

Размер: 1.37 GB | Добавлен: 7 лет 2 мес. назад | Торрент скачан:2856 раз
Скачать  

22-11-2013 17:06 Скачать торрент  

(Не)жданный принц / Un prince (presque) charmantГод выпуска: 2013
Страна: Франция
Жанр: комедия, мелодрама
Продолжительность: 01:23:01
Перевод: Профессиональный (полное дублирование)[лицензия]
Субтитры: Нет
Режиссер: Филипп Леллуш / Philippe Lellouche
Продюсер: Люк Бессон / Luc Besson
Сценарий:Люк Бессон / Luc Besson

В ролях: Венсан Перес (Jean-Marc), Ваина Джоканте (Marie 2), Жером Киршер (Bertrand), Хлоя Куллу (Marie 1), Жак Вебер (Charles Lavantin), Николь Кальфан (Mireille Lavantin), Мусса Мааскри (Samos), Коме Левин (Seb), Жюдит Сибони (Evelyne), Пьер Лаплейс (Paysan), Григорий Мануков (Kotchev), Доминик Лепаж (Pompiste)
Описание:
Разведенный карьерист и циник Жан-Марк не остановится ни перед чем для достижения своих целей. За подготовкой крупного контракта он едва не пропускает свадьбу собственной дочери и лишь за два дня до торжества собирается в путь. Дорога обернется для героя встречей с его полной противоположностью, романтичной и бескорыстной девушкой Мари, которая, вопреки духу времени, мечтает о принце на белом коне...
Рейтинг
kinopoisk.ru: 6.632 (1785)
imdb.com: 5.30 (143)
Качество: DVDRip
Формат: AVI
Видео кодек: XviD
Аудио кодек: AC3
Видео: XviD, 720x304 (2.35:1), 1899 kbps, 25 fps, 0,347 bpp
Аудио: AC3 / 5.1 / 48 kHz / 448 kbps / 16 bit

General
Complete name : D:ТорентыNezhdannyj.princ.2013.D.DVDRip.1400Mb.avi
Format : AVI
Format/Info : Audio Video Interleave
File size : 1.37 GiB
Duration : 1h 23mn
Overall bit rate : 2 358 Kbps
Writing application : VirtualDubMod 1.5.10.3 | www.virtualdub-fr.org || (build 2550/release)
Writing library : VirtualDubMod build 2550/release

Video
ID : 0
Format : MPEG-4 Visual
Format profile : Advanced Simple@L5
Format settings, BVOP : 2
Format settings, QPel : No
Format settings, GMC : No warppoints
Format settings, Matrix : Default (MPEG)
Codec ID : XVID
Codec ID/Hint : XviD
Duration : 1h 23mn
Bit rate : 1 900 Kbps
Width : 720 pixels
Height : 304 pixels
Display aspect ratio : 2.35:1
Frame rate : 25.000 fps
Color space : YUV
Chroma subsampling : 4:2:0
Bit depth : 8 bits
Scan type : Progressive
Compression mode : Lossy
Bits/(Pixel*Frame) : 0.347
Stream size : 1.10 GiB (81%)
Writing library : XviD 1.2.1 (UTC 2008-12-04)

Audio
ID : 1
Format : AC-3
Format/Info : Audio Coding 3
Mode extension : CM (complete main)
Codec ID : 2000
Duration : 1h 23mn
Bit rate mode : Constant
Bit rate : 448 Kbps
Channel(s) : 6 channels
Channel positions : Front: L C R, Side: L R, LFE
Sampling rate : 48.0 KHz
Bit depth : 16 bits
Compression mode : Lossy
Stream size : 266 MiB (19%)
Alignment : Split accross interleaves
Interleave, duration : 40 ms (1.00 video frame)
Interleave, preload duration : 500 ms
Трейлеры к фильмам [2013-2014] pb.wtf



Скачать через торрент http://i1.imageban.ru/out/2013/11/22/230004fb95e014ca24b316ce8621ab35.jpg Скачать фильм через торрент бесплантно в хорошем качестве Описание: Разведенный карьерист и циник Жан-Марк не остановится ни перед чем для достижения своих целей. За подготовкой крупного контракта ... 9.7 10 57
Info! Золотая раздача, скачанное не засчитывается.
Торрент: Зарегистрирован [2013-11-22 17:06] · скачан: 2 856 раз
Статус: √ проверено
Размер: 1.37 GB
Как cкачать? Как скачать через торрент | UTorrent

28-11-2019 20:33  

Отключить всю рекламу на сайте

26-11-2013 17:01 Скачать торрент  

хорошая мелодраммаpb.wtf



    Дорогой пользователь! Огромная просьба, поблагодарите релизера, оцените раздачу и оставьте свои комментарий, если Вы скачали через торрент бесплатно! Внесите свою лепту в развитие PiratBit!
    Комментировать посты могут только пользователи прошедшие не сложную регистрацию
    Показать сообщения:    

    через торрент
    Скачать бесплатно
    скачать торрент
    смотреть онлайн
    Cкачать фильм бесплатно
    скачать торрент в хорошем качестве
    смотреть онлайн бесплатно в хорошем качестве


    Вы не можете начинать темы
    Вы не можете отвечать на сообщения
    Вы не можете редактировать свои сообщения
    Вы не можете удалять свои сообщения
    Вы не можете голосовать в опросах
    Вы не можете прикреплять файлы к сообщениям
    Вы можете скачивать файлы