Ссылка на приватное зеркало нашего сайта всего за 1$. Внимание количество ограничено!!!

2 сезон

iTunes

1 сезон

1

iTunes

iTunes

iTunes

1 сезон

RePack

30

ИГРА 18+

pack

ВАЖНО

!!Акция!!

Alien_RageХит недели

RePack

MK11
pack

Забери бонус

RePack

jed

!!Акция!!

Alien_Rage

RePack

fifa19

RePack

Assassins Creed: Odyssey

RePack

NEED FOR SPEED™ PAYBACK

4 сезон

9 сезон

Бесстыжие 9 сезон

Все сериалы

все сериалы на PB.wtf

RePack

FAR CRY 5
  

Он гораздо популярнее тебя / He's Way More Famous Than You (Майкл Ури / Michael Urie) [ 2013 , США , комедия , WEB-DLRip ] DUB(Чистый звук) pb.wtf

Он гораздо популярнее тебя через торрент pb.wtf

Размер: 1.37 GB | Добавлен: 6 лет 11 мес. назад | Торрент скачан:765 раз
Скачать  

22-11-2013 17:10 Он гораздо популярнее тебя Скачать торрент  

Он гораздо популярнее тебя / He's Way More Famous Than YouГод выпуска: 2013
Страна: США
Жанр: комедия

Продолжительность: 01:36:01
Перевод: Профессиональный (полное дублирование)
Субтитры: Нет
Режиссер: Майкл Ури / Michael Urie
В ролях: Майкл Чернус (Michael Chernus), Хэлли Фейффер (Halley Feiffer), Мэми Гаммер (Mamie Gummer), Наташа Лионн (Natasha Lyonne), Ральф Маччио (Ralph Macchio), Майкл Ури (Michael Urie), Ванесса Уильямс (Vanessa Williams), Райан Спэн (Ryan Feiffer), Эшли Эткинсон (Gina), Майкл Осьелло (Michael Ausiello), Дэниэл Брикер (EMT), Джейн Брукшир (Jessica)
Описание:
Когда бывшая звезда инди-фильмов Хэлли Феффер одним махом лишается бойфренда, агента и карьеры, она, наконец, понимает, что что-то в ее жизни должно измениться. Что именно? Надо стать ГОРАЗДО популярнее, чем раньше! Вооруженная украденным сценарием и парой бутылок сангрии, Хэлли зовет на помощь своего брата Райана и его друга и принимается за съемки собственного фильма с самой собой в главной роли.
Качество: WEB-DLRip
Формат: AVI
Видео кодек: XviD
Аудио кодек: AC3
Видео: XviD, 720x400 (16:9), 1833 kbps, 23,976 fps, 0,266 bpp
Аудио: AC3 / 2.0 / 48 kHz / 192 kbps / 16 bit

General
Complete name : D:Торенты�n.g0ra3do.popul9rnee.teb9.2013.D.WEB-DLRip.1400MB_.avi
Format : AVI
Format/Info : Audio Video Interleave
File size : 1.37 GiB
Duration : 1h 36mn
Overall bit rate : 2 035 Kbps
Writing application : VirtualDubMod 1.5.10.3 | www.virtualdub-fr.org || (build 2550/release)
Writing library : VirtualDubMod build 2550/release

Video
ID : 0
Format : MPEG-4 Visual
Format profile : Advanced Simple@L5
Format settings, BVOP : 2
Format settings, QPel : No
Format settings, GMC : No warppoints
Format settings, Matrix : Custom
Codec ID : XVID
Codec ID/Hint : XviD
Duration : 1h 36mn
Bit rate : 1 834 Kbps
Width : 720 pixels
Height : 400 pixels
Display aspect ratio : 16:9
Frame rate : 23.976 fps
Color space : YUV
Chroma subsampling : 4:2:0
Bit depth : 8 bits
Scan type : Progressive
Compression mode : Lossy
Bits/(Pixel*Frame) : 0.266
Stream size : 1.23 GiB (90%)
Writing library : XviD 1.2.1 (UTC 2008-12-04)

Audio
ID : 1
Format : AC-3
Format/Info : Audio Coding 3
Mode extension : CM (complete main)
Codec ID : 2000
Duration : 1h 36mn
Bit rate mode : Constant
Bit rate : 192 Kbps
Channel(s) : 2 channels
Channel positions : Front: L R
Sampling rate : 48.0 KHz
Bit depth : 16 bits
Compression mode : Lossy
Stream size : 132 MiB (9%)
Alignment : Split accross interleaves
Interleave, duration : 42 ms (1.00 video frame)
Interleave, preload duration : 500 ms
Трейлеры к фильмам [2013-2014] pb.wtf



Скачать Он гораздо популярнее тебя через торрент http://i6.imageban.ru/out/2013/11/22/480dcf6a9fffc6c982f2de1bb779c096.jpg Скачать фильм Он гораздо популярнее тебя через торрент бесплантно в хорошем качестве Описание: Когда бывшая звезда инди-фильмов Хэлли Феффер одним махом лишается бойфренда, агента и карьеры, она, наконец, понимает, что ... 8.8 10 16
Info! Золотая раздача, скачанное не засчитывается.
Торрент: Зарегистрирован [2013-11-22 17:10] · скачан: 765 раз
Статус: T временная
Размер: 1.37 GB
Как cкачать? Как скачать Он гораздо популярнее тебя через торрент | qTorrent

28-11-2019 20:33  

Отключить всю рекламу на сайте

22-11-2013 17:22 Он гораздо популярнее тебя Скачать торрент  

лет'с гоу - давай скачаем это... была бы скорость, а не 0,1кб/с :hmmmpb.wtf



    Дорогой пользователь! Огромная просьба, поблагодарите релизера, оцените раздачу и оставьте свои комментарий, если Вы скачали Он гораздо популярнее тебя через торрент бесплатно! Внесите свою лепту в развитие PiratBit!
    Комментировать посты могут только пользователи прошедшие не сложную регистрацию
    Показать сообщения:    

    Он гораздо популярнее тебя через торрент
    Скачать бесплатно Он гораздо популярнее тебя
    Он гораздо популярнее тебя скачать торрент
    Он гораздо популярнее тебя смотреть онлайн
    Cкачать фильм Он гораздо популярнее тебя бесплатно
    Он гораздо популярнее тебя скачать торрент в хорошем качестве
    Он гораздо популярнее тебя смотреть онлайн бесплатно в хорошем качестве


    Вы не можете начинать темы
    Вы не можете отвечать на сообщения
    Вы не можете редактировать свои сообщения
    Вы не можете удалять свои сообщения
    Вы не можете голосовать в опросах
    Вы не можете прикреплять файлы к сообщениям
    Вы можете скачивать файлы