2 сезон

iTunes

MVO

1

2 сезон

iTunes

iTunes

1 сезон

RePack

30

Новинка

ВАЖНО

ИГРА 18+

pack

RePack

MK11
pack

Легкие деньги

RePack

jed

RePack

fifa19

RePack

RDR2

RePack

NEED FOR SPEED™ PAYBACK

4 сезон

9 сезон

Бесстыжие 9 сезон

Все сериалы

все сериалы на PB.wtf

RePack

FAR CRY 5

Anonymous, доброе утро, мы не успеваем собрать деньги на оплату серверов за декабрь и январь, помогите нам пожалуйста в это трудное время. В качестве благодарности мы отключим Вам всю рекламу на сайте (укажите свой ник в строку Ваше имя)!

×
  
Magnet ссылка

Университетский вампир / Vamp U (Мэтт Есперсен / Matt Jespersen, Маклейн Нельсон / Maclain Nelson) [ 2013 , США , ужасы, боевик, комедия , WEB-DLRip ] MVO [НТВ+] pb.wtf

Университетский вампир через торрент pb.wtf

Размер: 1.37 GB | Добавлен: 7 лет 1 мес. назад | Торрент скачан:1606 раз
Скачать  

22-11-2013 22:03 Университетский вампир Скачать торрент  

Университетский вампир / Vamp UГод выпуска: 2013
Страна: США
Жанр: ужасы, боевик, комедия
Продолжительность: 01:35:57
Перевод: Профессиональный (многоголосый, закадровый)[НТВ+]
Субтитры: Нет
Режиссер: Мэтт Есперсен / Matt Jespersen, Маклейн Нельсон / Maclain Nelson
В ролях: Джули Гонсало (Chris Keller /Mary Lipinsky), Адам Джонсон (Wayne Gretzky), Алексис Нэп (Samantha), Гэри Коул (Arthur Levine), Маклейн Нельсон (Fred Green), Мэтт Маттсон (Tom Slansky), Барт Джонсон (Ted Keller), Клэр Нидерпрюэм (Janet), Фрэнки Леванджи (Kyle), Джейк Ван Вагонер (Jared), Ренни Грэймс (Mel), Джейсон Целая (Gregor)
Описание:
300 лет назад вампир Уэйн Грецки утратил способность «вампирствовать» после потери любви всей жизни. В наши дни он коллежский профессор, однако вампирическое проклятие продолжает преследовать его.
Рейтинг
kinopoisk.ru: 3.000 (36)
imdb.com: 4.10 (1162)
Качество: WEB-DLRip
Формат: AVI
Видео кодек: XviD
Аудио кодек: AC3
Видео: XviD, 720x400 (16:9), 1757 kbps, 23,976 fps, 0,255 bpp
Аудио: AC3 / 2.0 / 48 kHz / 192 kbps / 16 bit

General
Complete name : D:ТорентыVamp.U.2013.P.WEBDLRip.1400Mb.avi
Format : AVI
Format/Info : Audio Video Interleave
File size : 1.37 GiB
Duration : 1h 35mn
Overall bit rate : 2 039 Kbps
Writing application : VirtualDubMod 1.5.10.3 | www.virtualdub-fr.org || (build 2550/release)
Writing library : VirtualDubMod build 2550/release

Video
ID : 0
Format : MPEG-4 Visual
Format profile : Advanced Simple@L5
Format settings, BVOP : 1
Format settings, QPel : No
Format settings, GMC : No warppoints
Format settings, Matrix : Custom
Codec ID : XVID
Codec ID/Hint : XviD
Duration : 1h 35mn
Bit rate : 1 758 Kbps
Width : 720 pixels
Height : 400 pixels
Display aspect ratio : 16:9
Frame rate : 23.976 fps
Color space : YUV
Chroma subsampling : 4:2:0
Bit depth : 8 bits
Scan type : Progressive
Compression mode : Lossy
Bits/(Pixel*Frame) : 0.255
Stream size : 1.18 GiB (86%)
Writing library : XviD 1.2.1 (UTC 2008-12-04)

Audio
ID : 1
Format : AC-3
Format/Info : Audio Coding 3
Mode extension : CM (complete main)
Codec ID : 2000
Duration : 1h 35mn
Bit rate mode : Constant
Bit rate : 192 Kbps
Channel(s) : 2 channels
Channel positions : Front: L R
Sampling rate : 48.0 KHz
Bit depth : 16 bits
Compression mode : Lossy
Stream size : 132 MiB (9%)
Alignment : Split accross interleaves
Трейлеры к фильмам [2013-2014] pb.wtf



Скачать Университетский вампир через торрент http://i6.imageban.ru/out/2013/11/23/c4a146d717e191fb171bbf5399b91fe2.jpg Скачать фильм Университетский вампир через торрент бесплантно в хорошем качестве Описание: 300 лет назад вампир Уэйн Грецки утратил способность «вампирствовать» после потери любви всей жизни. В наши дни он коллежский ... 9.5 10 43
Info! Золотая раздача, скачанное не засчитывается.
Торрент: Зарегистрирован [2013-11-22 22:03] · скачан: 1 606 раз
Статус: √ проверено
Размер: 1.37 GB
Как cкачать? Как скачать Университетский вампир через торрент | UTorrent

% Раздел Тема Автор DL S | L
Фильмы 2013 [DVDrip, WEB-DLRip, HDrip] [ 748 MB ] Университетский вампир / Vamp U [2013 HDRip] [DVO] [ НТВ Se7ven95 Скачать
1 | 0

28-11-2019 20:33  

Отключить всю рекламу на сайте

24-11-2013 22:01 Университетский вампир Скачать торрент  

Ну хотя бы тема раскрыта? Или хрен.pb.wtf



28-11-2013 16:28 Университетский вампир Скачать торрент  

Куя, даже со спины не покажут. Комедия для детей.pb.wtf



11-01-2014 10:12 Университетский вампир Скачать торрент  

блеватня полная, гребаный старпер вампир косяк ходячий только тёлок портить умеет, из всего фильма можно только выделить толстого чувака!!!pb.wtf



12-01-2014 05:03 Университетский вампир Скачать торрент  

изо всего только на посте титьки нормpb.wtf



12-01-2014 10:37 Университетский вампир Скачать торрент  

Фильм непонравилсяpb.wtf



12-01-2014 11:29 Университетский вампир Скачать торрент  

swat48 писал(а):

изо всего только на посте титьки норм

силиконpb.wtf



    Дорогой пользователь! Огромная просьба, поблагодарите релизера, оцените раздачу и оставьте свои комментарий, если Вы скачали Университетский вампир через торрент бесплатно! Внесите свою лепту в развитие PiratBit!
    Комментировать посты могут только пользователи прошедшие не сложную регистрацию
    Показать сообщения:    

    Университетский вампир через торрент
    Скачать бесплатно Университетский вампир
    Университетский вампир скачать торрент
    Университетский вампир смотреть онлайн
    Cкачать фильм Университетский вампир бесплатно
    Университетский вампир скачать торрент в хорошем качестве
    Университетский вампир смотреть онлайн бесплатно в хорошем качестве


    Вы не можете начинать темы
    Вы не можете отвечать на сообщения
    Вы не можете редактировать свои сообщения
    Вы не можете удалять свои сообщения
    Вы не можете голосовать в опросах
    Вы не можете прикреплять файлы к сообщениям
    Вы можете скачивать файлы