Ссылка на приватное зеркало нашего сайта всего за 1$. Внимание количество ограничено!!!

2 сезон

iTunes

1 сезон

1

iTunes

iTunes

iTunes

1 сезон

RePack

30

ИГРА 18+

pack

ВАЖНО

!!Акция!!

Alien_RageХит недели

RePack

MK11
pack

Забери бонус

RePack

jed

!!Акция!!

Alien_Rage

RePack

fifa19

RePack

Assassins Creed: Odyssey

RePack

NEED FOR SPEED™ PAYBACK

4 сезон

9 сезон

Бесстыжие 9 сезон

Все сериалы

все сериалы на PB.wtf

RePack

FAR CRY 5
  

Масс Эффект: Утерянный Парагон / Mass Effect: Paragon Lost (Ацуси Такэути) [2012 г., Мультфильм, фантастика, боевик, HDRip, Любительский многоголосый] pb.wtf

Масс Эффект: Утерянный Парагон через торрент pb.wtf

Раздают: 1 [ 0 KB/s ]
Размер: 1.49 GB | Добавлен: 6 лет 11 мес. назад | Торрент скачан:358 раз
Скачать  

22-11-2013 22:23 Масс Эффект: Утерянный Парагон Скачать торрент  


Масс Эффект: Утерянный Парагон / Mass Effect: Paragon Lost
Год выпуска: 2012
Страна: США, Япония, Канада
Производство: Bioware, Electronic Arts (EA), FUNimation Productions Ltd., Production I.G., T.O. Entertainment
Жанр: Мультфильм, фантастика, боевик,
Продолжительность: 01:34:36
Перевод: Любительский многоголосый
Субтитры: нет
Режиссер: Ацуси Такэути
Продюссер: Ген Фукунага, Такеити Хонда, Крис Муджес
Сценарий: Генри Гилрой
Премьера в мире: 29 ноября 2012
IMDb: 5.50
kinopoisk: 6.914
В ролях: Лора Бэйли, Брюс Кэри, Джастин Кук, Джейсон Дуглас, Кара Эдвардс, Джош Грелл, Тодд Хаберкорн, Вик Миньона, Фредди Принц мл., Моника Риал,
Описание:
Mass Effect: Paragon Lost является приквелом к игре Mass Effect 3. В центре сюжета - начало карьеры офицера Альянса Джеймса Веги. Джеймс приходит в элитный отряд спецназа Альянса в начале борьбы с таинственной угрозой, известной как Коллекционеры. Состоя на службе в отдалённой звёздной системе, Джеймс Вега и его напарники должны защитить граждан колонии от вторжения неизвестных, которые пытаются похитить людей
Доп. информация:
Ограничение по возрасту: 12+
Качество: HDRip
Формат: AVI
Видео кодек: XviD
Аудио кодек: AC3
Видео: XviD,720x400,23.976 fps, ~1798 kbps
Аудио#1: AC-3,48 kHz,6 ch, ~448 kbps




Полное имя : F:МультфильмыMass Effect.Утерянный Парагон.2012.L.HDRip.avi
Формат : AVI
Формат/Информация : Audio Video Interleave
Размер файла : 1,49 Гбайт
Продолжительность : 1 ч. 34 м.
Общий поток : 2256 Кбит/сек
Программа кодирования : VirtualDubMod 1.5.10.2 (build 2540/release)
Библиотека кодирования : VirtualDubMod build 2540/release

Идентификатор : 0
Формат : MPEG-4 Visual
Профиль формата : Advanced Simple@L5
Параметр BVOP формата : 1
Параметр QPel формата : Нет
Параметр GMC формата : Без точки перехода
Параметр матрицы формата : Default (MPEG)
Идентификатор кодека : XVID
Идентификатор кодека/Подсказка : XviD
Продолжительность : 1 ч. 34 м.
Битрейт : 1799 Кбит/сек
Ширина : 720 пикселей
Высота : 400 пикселей
Соотношение сторон : 16:9
Частота кадров : 23,976 кадра/сек
Цветовое пространство : YUV
Субдискретизация насыщенности : 4:2:0
Битовая глубина : 8 бит
Тип развёртки : Прогрессивная
Метод сжатия : С потерями
Бит/(Пиксели*Кадры) : 0.261
Размер потока : 1,19 Гбайт (80%)
Библиотека кодирования : XviD 1.2.1 (UTC 2008-12-04)

Идентификатор : 1
Формат : AC-3
Формат/Информация : Audio Coding 3
Расширение режима : CM (complete main)
Параметр Endianness формата : Big
Идентификатор кодека : 2000
Продолжительность : 1 ч. 34 м.
Вид битрейта : Постоянный
Битрейт : 448 Кбит/сек
Каналы : 6 каналов
Расположение каналов : Front: L C R, Side: L R, LFE
Частота : 48,0 КГц
Битовая глубина : 16 бит
Метод сжатия : С потерями
Размер потока : 303 Мбайт (20%)
Выравнивание : Разделение по промежуткам
Продолжительность промежутка : 42 мс. (1,00 видеокадр)
Время предзагрузки промежутка : 500 мс.

pb.wtf



Скачать Масс Эффект: Утерянный Парагон через торрент http://pic.kartinco.top/images/6/cpobr.jpg Скачать фильм Масс Эффект: Утерянный Парагон через торрент бесплантно в хорошем качестве Описание: Mass Effect: Paragon Lost является приквелом к игре Mass Effect В центре сюжета - начало карьеры офицера Альянса Джеймса Веги. ... 9.5 10 27
Info! Золотая раздача, скачанное не засчитывается.
Торрент: Зарегистрирован [2013-11-22 22:23] · скачан: 358 раз
Статус: √ проверено
Размер: 1.49 GB
Как cкачать? Как скачать Масс Эффект: Утерянный Парагон через торрент | qTorrent



Последний раз редактировалось: DROYD002012 (2013-11-23 12:54), всего редактировалось 5 раз(а)

28-11-2019 20:33  

Отключить всю рекламу на сайте

23-11-2013 00:21 Масс Эффект: Утерянный Парагон Скачать торрент  

даже и не знал , что анимацию делали. Надо будет посмотреть.автору респектpb.wtf



23-11-2013 04:16 Масс Эффект: Утерянный Парагон Скачать торрент  

samodyff писал(а):

даже и не знал , что анимацию делали. Надо будет посмотреть.автору респект

Есть ещё и по Dead Spacepb.wtf



23-11-2013 13:39 Масс Эффект: Утерянный Парагон Скачать торрент  

pb.wtf



24-11-2013 05:19 Масс Эффект: Утерянный Парагон Скачать торрент  

DROYD002012 - Смысл релизить то, что раздавать не хочешь?
Vetal - "проверено" ))) - полного источника не было 5ч - а релизу менее суток!
Скачал с другого источника - попробую "подсунуть"...pb.wtf



24-11-2013 05:23 Масс Эффект: Утерянный Парагон Скачать торрент  

DROYD002012 - исправь torrent. Подсунул файл, мульт полный (просмотрел до титров) клиент продолжает "висеть" на 80%)))pb.wtf



25-11-2013 11:02 Масс Эффект: Утерянный Парагон Скачать торрент  

Свяжитесь с модерами пожалуйста,обьясните им почему мне надо торрент поменять я поменяю.У меня файл полностью есть,весь мультик есть у меня все показывает.

Teagun писал(а):

DROYD002012 - исправь torrent. Подсунул файл, мульт полный (просмотрел до титров) клиент продолжает "висеть" на 80%)))

pb.wtf



20-05-2016 17:54 Масс Эффект: Утерянный Парагон Скачать торрент  

хммм надо глянуть че это такое походу упустилpb.wtf



    Дорогой пользователь! Огромная просьба, поблагодарите релизера, оцените раздачу и оставьте свои комментарий, если Вы скачали Масс Эффект: Утерянный Парагон через торрент бесплатно! Внесите свою лепту в развитие PiratBit!
    Комментировать посты могут только пользователи прошедшие не сложную регистрацию
    Показать сообщения:    

    Масс Эффект: Утерянный Парагон через торрент
    Скачать бесплатно Масс Эффект: Утерянный Парагон
    Масс Эффект: Утерянный Парагон скачать торрент
    Масс Эффект: Утерянный Парагон смотреть онлайн
    Cкачать фильм Масс Эффект: Утерянный Парагон бесплатно
    Масс Эффект: Утерянный Парагон скачать торрент в хорошем качестве
    Масс Эффект: Утерянный Парагон смотреть онлайн бесплатно в хорошем качестве


    Вы не можете начинать темы
    Вы не можете отвечать на сообщения
    Вы не можете редактировать свои сообщения
    Вы не можете удалять свои сообщения
    Вы не можете голосовать в опросах
    Вы не можете прикреплять файлы к сообщениям
    Вы можете скачивать файлы