Ссылка на приватное зеркало всего за 1$. Внимание количество ограничено!!!

OK

1+1

iTunes

мы

OK

1

WEB-DLRip

Джокер

Пифагор

Ведьмак / The Witcher сериал

Лицензия

ПШазам

ОК

Оно 2

iTunes

30
pack

Вам бонус

ВАЖНО

!!Акция!!

Alien_RageХит недели

RePack

Resident Evil 21

ИГРА 18+

pack

RePack

jed

!!Акция!!

Alien_Rage

RePack

fifa19

RePack

Assassins Creed: Odyssey

RePack

NEED FOR SPEED™ PAYBACK

4 сезон

9 сезон

Бесстыжие 9 сезон

Все сериалы

все сериалы на PB.wtf

RePack

FAR CRY 5
  

Джастин и рыцари доблести / Justin and the Knights of Valour (Мануэль Сисилия / Manuel Sicilia) [2013, мультфильм, приключения, DVD9] R5 pb.wtf

Джастин и рыцари доблести через торрент pb.wtf

Размер: 5.02 GB | Добавлен: 6 лет 1 мес. назад | Торрент скачан:370 раз
Скачать  

20-11-2013 19:17 Джастин и рыцари доблести Скачать торрент  


Джастин и рыцари доблести / Justin and the Knights of Valour
Страна: Испания
Студия: Aliwood Mediterráneo Producciones, Kandor Graphics, Ono, Out Of The Box Feature
Жанр: мультфильм, приключения
Год выпуска: 2013
Мировая премьера: 12 сентября 2013
Российская премьера: 24 октября 2013, 3D
Дата выхода DVD: 19 ноября 2013
Дата выхода Blu-Ray: 19 ноября 2013
Продолжительность: 01:32:02
Перевод: Профессиональный (дублированный) [Лицензия]
Cубтитры: нет
Оригинальная аудиодорожка: нет
Режиссер: Мануэль Сисилия / Manuel Sicilia
Роли озвучивали: Фредди Хаймор, Сирша Ронан, Марк Стронг, Дэвид Уоллиамс, Антонио Бандерас, Альфред Молина, Джули Уолтерс, Оливия Уильямс, Чарльз Дэнс, Руперт Эверетт
Описание: Действие мультфильма разворачивается в магическом мире, о котором мечтает каждый ребёнок. Джастин мечтает стать рыцарем, но на его пути появляется много препятствий бюрократического характера. Даже отец Джастина против рыцарства и хочет, чтобы сын стал придворным служащим. Тогда мальчик, обуреваемый желанием стать настоящим доблестным Рыцарем, сбегает из дома в поисках приключений. По дороге он знакомится с прекрасной девушкой — Талией, вдохновляющей его на новые подвиги, и встречает мудрых рыцарей-наставников, которые обучают его рыцарскому мастерству. Но хватит ли Джастину полученных знаний для того, чтобы справиться с угрозой, которая нависла над его Королевством? Сумеет ли мальчик преодолеть все препятствия и достичь своей мечты?
Бонусы: нет

Качество: DVD9 R5
Формат: DVD-Video
Видео кодек: MPEG2
Аудио кодек: AC3 + DTS
Видео: PAL 16:9 (720x576(0.522)) MPEG Video, 25,000 кадр/сек, 5409 Кбит/сек
Аудио #1: Russian (Dolby AC3, 6 ch) 448 Кбит/сек, 48,0 КГц
Аудио #2: Russian (Dolby AC3, 2 ch) 192 Кбит/сек, 48,0 КГц
Аудио #3: Russian (DTS, 6 ch) 768 Кбит/сек, 48,0 КГц



Title: Dzhastin.i.rycari.doblesti.2013.DVD9
Size: 5.02 Gb ( 5 261 808,00 KBytes ) - DVD-9
Enabled regions: 1, 2, 3, 4, 5, 6, 7, 8

VTS_01 :
Play Length: 00:00:25
Video: PAL 4:3 (720x576) VBR
Audio:
Russian (Dolby AC3, 6 ch)

VTS_02 :
Play Length: 01:32:02
Video: PAL 16:9 (720x576) VBR, Auto Pan&Scan, Auto Letterboxed
Audio:
Russian (Dolby AC3, 6 ch)
Russian (Dolby AC3, 2 ch)
Russian (DTS, 6 ch)

* Menus Information *

VIDEO_TS Menu
Video:
PAL 4:3 (720x576) VBR
English Language Unit :
Title Menu

VTS_01 Menu
Video:
PAL 4:3 (720x576) VBR
Audio:
Not specified (Dolby AC3, 2 ch)
English Language Unit :
Root Menu
Chapter (PTT) Menu

VTS_02 Menu
Video:
PAL 4:3 (720x576) VBR
English Language Unit :
Root Menu
Audio Menu
Chapter (PTT) Menu
Общее
Полное имя : F:Новинки 2013Dzhastin.i.rycari.doblesti.2013.DVD9VIDEO_TSVTS_02_1.VOB
Формат : MPEG-PS
Размер файла : 1024 Мбайт
Продолжительность : 20 м.
Режим общего битрейта : Переменный
Общий поток : 6941 Кбит/сек

Видео
Идентификатор : 224 (0xE0)
Формат : MPEG Video
Версия формата : Version 2
Профиль формата : Main@Main
Параметр BVOP формата : Да
Параметр матрицы формата : Выборочная
Параметр GOP формата : M=3, N=12
Продолжительность : 20 м.
Вид битрейта : Переменный
Битрейт : 5409 Кбит/сек
Максимальный битрейт : 8500 Кбит/сек
Ширина : 720 пикселей
Высота : 576 пикселей
Соотношение сторон : 16:9
Частота кадров : 25,000 кадров/сек
Стандарт вещания : PAL
Цветовое пространство : YUV
Субдискретизация насыщенности : 4:2:0
Битовая глубина : 8 бит
Тип развёртки : Прогрессивная
Метод сжатия : С потерями
Бит/(Пиксели*Кадры) : 0.522
Временной код первого кадра : 00:59:58:08
Оригинал временного кода : Group of pictures header
Размер потока : 798 Мбайт (78%)

Аудио #1
Идентификатор : 189 (0xBD)-128 (0x80)
Формат : AC-3
Формат/Информация : Audio Coding 3
Расширение режима : CM (complete main)
Параметр Endianness формата : Big
Режим смешивания : DVD-Video
Продолжительность : 20 м.
Вид битрейта : Постоянный
Битрейт : 448 Кбит/сек
Каналы : 6 каналов
Расположение каналов : Front: L C R, Side: L R, LFE
Частота : 48,0 КГц
Битовая глубина : 16 бит
Метод сжатия : С потерями
Размер потока : 66,1 Мбайт (6%)

Аудио #2
Идентификатор : 189 (0xBD)-129 (0x81)
Формат : AC-3
Формат/Информация : Audio Coding 3
Расширение режима : CM (complete main)
Параметр Endianness формата : Big
Режим смешивания : DVD-Video
Продолжительность : 20 м.
Вид битрейта : Постоянный
Битрейт : 192 Кбит/сек
Каналы : 2 канала
Расположение каналов : Front: L R
Частота : 48,0 КГц
Битовая глубина : 16 бит
Метод сжатия : С потерями
Размер потока : 28,3 Мбайт (3%)

Аудио #3
Идентификатор : 189 (0xBD)-138 (0x8A)
Формат : DTS
Формат/Информация : Digital Theater Systems
Режим : 16
Параметр Endianness формата : Big
Режим смешивания : DVD-Video
Продолжительность : 20 м.
Вид битрейта : Постоянный
Битрейт : 755 Кбит/сек
Каналы : 6 каналов
Расположение каналов : Front: L C R, Side: L R, LFE
Частота : 48,0 КГц
Битовая глубина : 24 бит
Метод сжатия : С потерями
Размер потока : 111 Мбайт (11%)










pb.wtf



Скачать Джастин и рыцари доблести через торрент http://i60.fastpic.ru/big/2013/1120/c7/3c7026d48fc583f3aede4b681074b2c7.png Скачать фильм Джастин и рыцари доблести через торрент бесплантно в хорошем качестве Описание: Действие мультфильма разворачивается в магическом мире, о котором мечтает каждый ребёнок. Джастин мечтает стать рыцарем, но на ... 10 10 20
Info! Золотая раздача, скачанное не засчитывается.
Торрент: Зарегистрирован [2013-11-22 23:30] · скачан: 370 раз
Статус: √ проверено
Размер: 5.02 GB
Как cкачать? Как скачать Джастин и рыцари доблести через торрент | qTorrent

28-11-2019 20:33  

Отключить всю рекламу на сайте

    Дорогой пользователь! Огромная просьба, поблагодарите релизера, оцените раздачу и оставьте свои комментарий, если Вы скачали Джастин и рыцари доблести через торрент бесплатно! Внесите свою лепту в развитие PiratBit!
    Комментировать посты могут только пользователи прошедшие не сложную регистрацию
    Показать сообщения:    

    Джастин и рыцари доблести через торрент
    Скачать бесплатно Джастин и рыцари доблести
    Джастин и рыцари доблести скачать торрент
    Джастин и рыцари доблести смотреть онлайн
    Cкачать фильм Джастин и рыцари доблести бесплатно
    Джастин и рыцари доблести скачать торрент в хорошем качестве
    Джастин и рыцари доблести смотреть онлайн бесплатно в хорошем качестве


    Вы не можете начинать темы
    Вы не можете отвечать на сообщения
    Вы не можете редактировать свои сообщения
    Вы не можете удалять свои сообщения
    Вы не можете голосовать в опросах
    Вы не можете прикреплять файлы к сообщениям
    Вы можете скачивать файлы