Ссылка на приватное зеркало нашего сайта всего за 1$. Внимание количество ограничено!!!

2 сезон

iTunes

1 сезон

1

2 сезон

2 сезон

iTunes

1 сезон

RePack

30

Новинка

ВАЖНО

ИГРА 18+

pack

RePack

MK11
pack

Забери бонус

RePack

jed

!!Акция!!

Alien_Rage

RePack

fifa19

RePack

Assassins Creed: Odyssey

RePack

NEED FOR SPEED™ PAYBACK

4 сезон

9 сезон

Бесстыжие 9 сезон

Все сериалы

все сериалы на PB.wtf

RePack

FAR CRY 5
  

Очень голодные игры / The Starving Games (Джейсон Фридберг / Jason Friedberg, Аарон Зельцер / Aaron Seltzer) [ 2013 , США , комедия , BDRip 720p,Профессиональный (полное дублирование) Чистый звук ] pb.wtf

Очень голодные игры через торрент pb.wtf

Размер: 3.35 GB | Добавлен: 7 лет назад | Торрент скачан:383 раза
Скачать  

23-11-2013 13:49 Очень голодные игры Скачать торрент  


Очень голодные игры / The Starving Games

«Этот фильм сожжёт ваши калории дотла»

  • Год выпуска:2013
  • Страна: США
  • Жанр: комедия
  • Продолжительность: 01:22:17
  • Перевод:Профессиональный (полное дублирование)|Чистый звук)

  • Субтитры: Русский
    • Режиссер: Джейсон Фридберг / Jason Friedberg, Аарон Зельцер / Aaron Seltzer
    • Сценарий: Джейсон Фридберг / Jason Friedberg, Аарон Зельцер / Aaron Seltzer
    • Продюсер: Питер Сафран / Peter Safran, Пэтти Лонг / Patty Long, Хэл Олофссон / Hal Olofsson, Колье Вегнер / Kolie Wegner, Скотт Уиллманн / Scott Willmann

  • В ролях:Майра Уолш (Kantmiss Evershot), Брэнт Догерти (Dale), Коди Кристиан (Peter Malarkey), Александрия Деберри, Ник Гомес (Avatar), Лорен Боулз (Effoff), Дидрих Бадер (President Snowballs), Джозеф Авиль (Arnold Schwarzenegger), Эштон Ли (Dos Equis Girl), Элис Форд (Zitty Girl), Эрик Борк (Bruce Willis), Джейд Роберт (Sylvester Stallone)
    • Описание:
      Храбрая девушка по имени Кантмисс Эвершот вызывается добровольцем для участия в «Играх за хавчик». Однако она даже предположить не могла, чем всё это закончится и кто будет сражаться вместе с ней.

    Бюджет:$4 500 000 / Мировая премьера:31 октября 2013
    • Качество:BDRip 720p
    • Формат: MKV
    • Видео кодек: AVC
    • Аудио кодек:MP3 /DTS
    • Видео: AVC, 1280x696 (16:9), 4192 kbps, 23,976 fps, 0,196 bpp
    • Аудио №1: русский / MP3 / 2.0 / 48 kHz / 128 kbps / ||
    • Аудио №2: английский / DTS / 5.1 / 48 kHz / 1510 kbps / 24 bit

    General
    Unique ID : 254981345734585506187477455276696824802 (0xBFD39EF35ED9C4F393577AE90AF26BE2)
    Complete name : D:ТорентыОчень голодные игры.2013.BDRip.720p.mkv
    Format : Matroska
    Format version : Version 4 / Version 2
    File size : 3.35 GiB
    Duration : 1h 22mn
    Overall bit rate : 5 829 Kbps
    Encoded date : UTC 2013-11-23 08:34:42
    Writing application : mkvmerge v6.1.0 ('Old Devil') built on Mar 4 2013 09:10:42
    Writing library : libebml v1.3.0 + libmatroska v1.4.0

    Video
    ID : 1
    Format : AVC
    Format/Info : Advanced Video Codec
    Format profile : High@L4.1
    Format settings, CABAC : Yes
    Format settings, ReFrames : 5 frames
    Codec ID : V_MPEG4/ISO/AVC
    Duration : 1h 22mn
    Bit rate : 4 192 Kbps
    Width : 1 280 pixels
    Height : 696 pixels
    Display aspect ratio : 16:9
    Frame rate : 23.976 fps
    Color space : YUV
    Chroma subsampling : 4:2:0
    Bit depth : 8 bits
    Scan type : Progressive
    Bits/(Pixel*Frame) : 0.196
    Stream size : 2.34 GiB (70%)
    Writing library : x264 core 138 r2358 9e941d1
    Encoding settings : cabac=1 / ref=5 / deblock=1:0:0 / analyse=0x3:0x133 / me=umh / subme=7 / psy=1 / psy_rd=1.00:0.00 / mixed_ref=1 / me_range=16 / chroma_me=1 / trellis=1 / 8x8dct=1 / cqm=0 / deadzone=21,11 / fast_pskip=0 / chroma_qp_offset=-2 / threads=12 / lookahead_threads=2 / sliced_threads=0 / nr=0 / decimate=1 / interlaced=0 / bluray_compat=0 / constrained_intra=0 / bframes=3 / b_pyramid=2 / b_adapt=2 / b_bias=0 / direct=3 / weightb=1 / open_gop=0 / weightp=2 / keyint=250 / keyint_min=23 / scenecut=40 / intra_refresh=0 / rc_lookahead=50 / rc=2pass / mbtree=1 / bitrate=4192 / ratetol=1.0 / qcomp=0.60 / qpmin=0 / qpmax=69 / qpstep=4 / cplxblur=20.0 / qblur=0.5 / ip_ratio=1.40 / aq=1:1.00
    Language : English
    Default : Yes
    Forced : No

    Audio #1
    ID : 2
    Format : MPEG Audio
    Format version : Version 1
    Format profile : Layer 3
    Mode : Joint stereo
    Mode extension : MS Stereo
    Codec ID : A_MPEG/L3
    Codec ID/Hint : MP3
    Duration : 1h 22mn
    Bit rate mode : Constant
    Bit rate : 128 Kbps
    Channel(s) : 2 channels
    Sampling rate : 48.0 KHz
    Compression mode : Lossy
    Stream size : 75.3 MiB (2%)
    Language : Russian
    Default : Yes
    Forced : No

    Audio #2
    ID : 3
    Format : DTS
    Format/Info : Digital Theater Systems
    Codec ID : A_DTS
    Duration : 1h 22mn
    Bit rate mode : Constant
    Bit rate : 1 510 Kbps
    Channel(s) : 6 channels
    Channel positions : Front: L C R, Side: L R, LFE
    Sampling rate : 48.0 KHz
    Bit depth : 24 bits
    Compression mode : Lossy
    Stream size : 889 MiB (26%)
    Language : English
    Default : No
    Forced : No

    Text
    ID : 4
    Format : UTF-8
    Codec ID : S_TEXT/UTF8
    Codec ID/Info : UTF-8 Plain Text
    Language : Russian
    Default : No
    Forced : No

    Menu
    00:00:00.000 : en:00:00:00.000
    00:15:41.816 : en:00:15:41.816
    00:33:35.347 : en:00:33:35.347
    00:50:36.867 : en:00:50:36.867
    01:03:29.848 : en:01:03:29.848
    01:15:14.135 : en:01:15:14.135





    Трейлеры к фильмам [2013-2014]
    © Оформление by Vetal
    pb.wtf



  • Скачать Очень голодные игры через торрент http://i58.fastpic.ru/big/2013/0922/31/4683bcd4960801b02604b79f43d30631.png Скачать фильм Очень голодные игры через торрент бесплантно в хорошем качестве Описание:Храбрая девушка по имени Кантмисс Эвершот вызывается добровольцем для участия в «Играх за хавчик». Однако она даже предположить не ... 9.9 10 11
    Info! Золотая раздача, скачанное не засчитывается.
    Торрент: Зарегистрирован [2013-11-23 13:49] · скачан: 383 раз
    Статус: T временная
    Размер: 3.35 GB
    Как cкачать? Как скачать Очень голодные игры через торрент | qTorrent

    28-11-2019 20:33  

    Отключить всю рекламу на сайте

    23-11-2013 14:09 Очень голодные игры Скачать торрент  

    Бред полный, не стоит и 5 минут вашего времени.pb.wtf



    23-11-2013 15:15 Очень голодные игры Скачать торрент  

    Опять каловый американский юмор? Бее-е-е) Фильм - 0, Релизеру - 10pb.wtf



    18-12-2013 17:52 Очень голодные игры Скачать торрент  

    Хотелось бы глянуть, но почему-то звук идет, а изображения нет. НЕ подскажете в чем проблема? Кодеки обновлены, проигрыватель тоже...pb.wtf



      Дорогой пользователь! Огромная просьба, поблагодарите релизера, оцените раздачу и оставьте свои комментарий, если Вы скачали Очень голодные игры через торрент бесплатно! Внесите свою лепту в развитие PiratBit!
      Комментировать посты могут только пользователи прошедшие не сложную регистрацию
      Показать сообщения:    

      Очень голодные игры через торрент
      Скачать бесплатно Очень голодные игры
      Очень голодные игры скачать торрент
      Очень голодные игры смотреть онлайн
      Cкачать фильм Очень голодные игры бесплатно
      Очень голодные игры скачать торрент в хорошем качестве
      Очень голодные игры смотреть онлайн бесплатно в хорошем качестве


      Вы не можете начинать темы
      Вы не можете отвечать на сообщения
      Вы не можете редактировать свои сообщения
      Вы не можете удалять свои сообщения
      Вы не можете голосовать в опросах
      Вы не можете прикреплять файлы к сообщениям
      Вы можете скачивать файлы