Ссылка на приватное зеркало нашего сайта всего за 1$. Внимание количество ограничено!!!

2 сезон

iTunes

1 сезон

1

iTunes

iTunes

iTunes

1 сезон

RePack

30

ИГРА 18+

pack

ВАЖНО

!!Акция!!

Alien_RageХит недели

RePack

MK11
pack

Забери бонус

RePack

jed

!!Акция!!

Alien_Rage

RePack

fifa19

RePack

Assassins Creed: Odyssey

RePack

NEED FOR SPEED™ PAYBACK

4 сезон

9 сезон

Бесстыжие 9 сезон

Все сериалы

все сериалы на PB.wtf

RePack

FAR CRY 5
  

Гарри Поттер и узник Азкабана / Harry Potter and the Prisoner of Azkaban (Альфонсо Куарон) [2004 г., фэнтези, приключения, BDRip 1080p, Дубляж + Оригинал] pb.wtf

Гарри Поттер и узник Азкабана через торрент pb.wtf

Раздают: 2 [ 0 KB/s ]
Размер: 7.76 GB | Добавлен: 6 лет 11 мес. назад | Торрент скачан:1334 раза
Скачать  

23-11-2013 15:51 Гарри Поттер и узник Азкабана Скачать торрент  

Гарри Поттер и узник Азкабана / Harry Potter and the Prisoner of Azkaban
Год выпуска: 2004
Страна: США
Жанр: фэнтези, приключения,
Продолжительность: 02:21:42
Перевод: Дубляж + Оригинал
Субтитры: русские,английские

Режиссер: Альфонсо Куарон

В ролях: Дэниэл Рэдклифф, Руперт Гринт, Эмма Уотсон, Том Фелтон, Гари Олдман, Дэвид Тьюлис, Майкл Гэмбон, Алан Рикман, Мэгги Смит, Робби Колтрейн,

Описание: В третьей части экранизации бестселлера о юном волшебнике, полюбившиеся всем герои — Гарри Поттер, Рон и Гермиона — возвращаются уже на третий курс школы чародейства и волшебства «Хогвартс». На этот раз они должны раскрыть тайну узника, сбежавшего из зловещей тюрьмы Азкабан, чье пребывание на воле создает для Гарри смертельную опасность…

Качество: BDRip 1080p
Формат: MKV
Видео кодек: H.264
Аудио кодек: AC3
Видео: (1920x800), 6562Кбит/с, 23.976 кадра/сек
Аудио#1: AC-3, 6 ch, 640 kbps (Rus) 48.0 KHz Дубляж
Аудио#2: AC-3, 6 ch, 640 kbps (Eng) 48.0 KHz Оригинал
скриншот   скриншот   скриншот  

Общее
Уникальный идентификатор : 215124725110952786587584569461072577746 (0xA1D783D62EE39ED5AF88EBD3E351C4D2)
Полное имя : Harry.Potter.and.the.Prisoner.of.Azkaban.2004.BDRip.1080p.Rus.Eng.mkv
Формат : Matroska
Версия формата : Version 2
Размер файла : 7,76 Гбайт
Продолжительность : 2 ч. 21 м.
Общий поток : 7844 Кбит/сек
Название фильма : Гарри Поттер и узник Азкабана / Harry Potter and the Prisoner of Azkaban (2004)
Дата кодирования : UTC 2012-07-31 12:50:02
Программа кодирования : mkvmerge v5.7.0 ('The Whirlwind') built on Jul 8 2012 20:08:51
Библиотека кодирования : libebml v1.2.3 + libmatroska v1.3.0

Видео
Идентификатор : 1
Формат : AVC
Формат/Информация : Advanced Video Codec
Профиль формата : High@L4.1
Параметр CABAC формата : Да
Параметр ReFrames формата : 5 кадров
Идентификатор кодека : V_MPEG4/ISO/AVC
Продолжительность : 2 ч. 21 м.
Битрейт : 6562 Кбит/сек
Ширина : 1920 пикселей
Высота : 800 пикселей
Соотношение сторон : 2,40:1
Частота кадров : 23,976 кадра/сек
Цветовое пространство : YUV
Субдискретизация насыщенности : 4:2:0
Битовая глубина : 8 бит
Тип развёртки : Прогрессивная
Бит/(Пиксели*Кадры) : 0.178
Размер потока : 6,34 Гбайт (82%)
Заголовок : Release by AlexKa
Библиотека кодирования : x264 core 125 r2208 d9d2288
Настройки программы : cabac=1 / ref=5 / deblock=1:-3:-3 / analyse=0x3:0x133 / me=umh / subme=10 / psy=1 / psy_rd=1.00:0.10 / mixed_ref=1 / me_range=32 / chroma_me=1 / trellis=2 / 8x8dct=1 / cqm=0 / deadzone=21,11 / fast_pskip=0 / chroma_qp_offset=-3 / threads=12 / lookahead_threads=2 / sliced_threads=0 / nr=0 / decimate=0 / interlaced=0 / bluray_compat=0 / constrained_intra=0 / bframes=5 / b_pyramid=2 / b_adapt=2 / b_bias=0 / direct=3 / weightb=1 / open_gop=0 / weightp=2 / keyint=240 / keyint_min=23 / scenecut=40 / intra_refresh=0 / rc=2pass / mbtree=0 / bitrate=6562 / ratetol=1.0 / qcomp=0.60 / qpmin=0 / qpmax=69 / qpstep=4 / cplxblur=20.0 / qblur=0.5 / ip_ratio=1.40 / pb_ratio=1.30 / aq=1:0.80
Язык : English

Аудио #1
Идентификатор : 2
Формат : AC-3
Формат/Информация : Audio Coding 3
Расширение режима : CM (complete main)
Идентификатор кодека : A_AC3
Продолжительность : 2 ч. 21 м.
Вид битрейта : Постоянный
Битрейт : 640 Кбит/сек
Каналы : 6 каналов
Расположение каналов : Front: L C R, Side: L R, LFE
Частота : 48,0 КГц
Битовая глубина : 16 бит
Метод сжатия : С потерями
Размер потока : 649 Мбайт (8%)
Заголовок : Rus
Язык : Russian

Аудио #2
Идентификатор : 3
Формат : AC-3
Формат/Информация : Audio Coding 3
Расширение режима : CM (complete main)
Идентификатор кодека : A_AC3
Продолжительность : 2 ч. 21 м.
Вид битрейта : Постоянный
Битрейт : 640 Кбит/сек
Каналы : 6 каналов
Расположение каналов : Front: L C R, Side: L R, LFE
Частота : 48,0 КГц
Битовая глубина : 16 бит
Метод сжатия : С потерями
Размер потока : 649 Мбайт (8%)
Заголовок : Eng
Язык : English

Текст #1
Идентификатор : 4
Формат : UTF-8
Идентификатор кодека : S_TEXT/UTF8
Идентификатор кодека/Информация : UTF-8 Plain Text
Заголовок : Rus
Язык : Russian

Текст #2
Идентификатор : 5
Формат : UTF-8
Идентификатор кодека : S_TEXT/UTF8
Идентификатор кодека/Информация : UTF-8 Plain Text
Заголовок : Eng
Язык : English

Меню
00:00:00.000 : :Chapter 01
00:01:40.100 : :Chapter 02
00:06:36.229 : :Chapter 03
00:12:45.931 : :Chapter 04
00:14:52.516 : :Chapter 05
00:16:12.513 : :Chapter 06
00:18:56.218 : :Chapter 07
00:23:50.387 : :Chapter 08
00:28:50.729 : :Chapter 09
00:31:21.838 : :Chapter 10
00:38:50.161 : :Chapter 11
00:44:45.307 : :Chapter 12
00:47:37.813 : :Chapter 13
00:49:39.935 : :Chapter 14
00:53:42.844 : :Chapter 15
00:57:28.403 : :Chapter 16
01:01:23.721 : :Chapter 17
01:03:22.924 : :Chapter 18
01:07:10.985 : :Chapter 19
01:11:53.475 : :Chapter 20
01:19:10.078 : :Chapter 21
01:22:29.945 : :Chapter 22
01:27:30.870 : :Chapter 23
01:30:13.366 : :Chapter 24
01:34:19.028 : :Chapter 25
01:36:56.894 : :Chapter 26
01:42:24.471 : :Chapter 27
01:45:40.334 : :Chapter 28
01:50:03.597 : :Chapter 29
01:55:33.343 : :Chapter 30
02:00:07.408 : :Chapter 31
02:03:16.055 : :Chapter 32
02:06:02.513 : :Chapter 33
02:08:42.923 : :Chapter 34
02:09:47.404 : :Chapter 35
02:21:41.910 : :Chapter 36

pb.wtf



Скачать Гарри Поттер и узник Азкабана через торрент http://pic.kartinco.top/images/6/d4s6o.jpg Скачать фильм Гарри Поттер и узник Азкабана через торрент бесплантно в хорошем качестве Описание: В третьей части экранизации бестселлера о юном волшебнике, полюбившиеся всем герои — Гарри Поттер, Рон и Гермиона — возвращаются ... 9.8 10 31
Info! Золотая раздача, скачанное не засчитывается.
Торрент: Зарегистрирован [2013-11-23 15:51] · скачан: 1 334 раз
Статус: √ проверено
Размер: 7.76 GB
Как cкачать? Как скачать Гарри Поттер и узник Азкабана через торрент | qTorrent

% Раздел Тема Автор DL S | L
Ultra HD (UHD: 2K, 4K, 8K) — видео сверхвысокой чёткости [ 70.05 GB ] Гарри Поттер и узник Азкабана / Harry Potter and the Prisoner of Azkaban [2004 UHD BD Remux 2160p] DUB+AVO+MVO +4xMVO bober100 Скачать
1 | 0

28-11-2019 20:33  

Отключить всю рекламу на сайте

23-11-2013 16:30 Гарри Поттер и узник Азкабана Скачать торрент  

Классный фильм. каждый день на него пофапываюpb.wtf



24-11-2013 14:06 Гарри Поттер и узник Азкабана Скачать торрент  

Дайте скорости...осталось чуть чуть..я потом на раздаче постоюpb.wtf



23-12-2019 00:55 Гарри Поттер и узник Азкабана Скачать торрент  

раздайте пожалуйста)pb.wtf



    Дорогой пользователь! Огромная просьба, поблагодарите релизера, оцените раздачу и оставьте свои комментарий, если Вы скачали Гарри Поттер и узник Азкабана через торрент бесплатно! Внесите свою лепту в развитие PiratBit!
    Комментировать посты могут только пользователи прошедшие не сложную регистрацию
    Показать сообщения:    

    Гарри Поттер и узник Азкабана через торрент
    Скачать бесплатно Гарри Поттер и узник Азкабана
    Гарри Поттер и узник Азкабана скачать торрент
    Гарри Поттер и узник Азкабана смотреть онлайн
    Cкачать фильм Гарри Поттер и узник Азкабана бесплатно
    Гарри Поттер и узник Азкабана скачать торрент в хорошем качестве
    Гарри Поттер и узник Азкабана смотреть онлайн бесплатно в хорошем качестве


    Вы не можете начинать темы
    Вы не можете отвечать на сообщения
    Вы не можете редактировать свои сообщения
    Вы не можете удалять свои сообщения
    Вы не можете голосовать в опросах
    Вы не можете прикреплять файлы к сообщениям
    Вы можете скачивать файлы