Ссылка на приватное зеркало нашего сайта всего за 1$. Внимание количество ограничено!!!

2 сезон

iTunes

1 сезон

1

iTunes

iTunes

iTunes

1 сезон

RePack

30

ИГРА 18+

pack

ВАЖНО

!!Акция!!

Alien_RageХит недели

RePack

MK11
pack

Забери бонус

RePack

jed

!!Акция!!

Alien_Rage

RePack

fifa19

RePack

Assassins Creed: Odyssey

RePack

NEED FOR SPEED™ PAYBACK

4 сезон

9 сезон

Бесстыжие 9 сезон

Все сериалы

все сериалы на PB.wtf

RePack

FAR CRY 5
  

Гарри Поттер и орден Феникса / Harry Potter and the Order of the Phoenix (Дэвид Йэтс) [2007 г., фэнтези, приключения, BDRip 1080p, Дубляж + Оригинал] pb.wtf

Гарри Поттер и орден Феникса через торрент pb.wtf

Раздают: 5 [ 0 KB/s ]
Размер: 7.76 GB | Добавлен: 6 лет 10 мес. назад | Торрент скачан:1137 раз
Скачать  

23-11-2013 16:14 Гарри Поттер и орден Феникса Скачать торрент  

Гарри Поттер и орден Феникса / Harry Potter and the Order of the Phoenix
Год выпуска: 2007
Страна: США
Жанр: фэнтези, приключения,
Продолжительность: 02:18:14
Перевод: Дубляж + Оригинал
Субтитры: русские,английские

Режиссер: Дэвид Йэтс

В ролях: Дэниэл Рэдклифф, Руперт Гринт, Эмма Уотсон, Гари Олдман, Рэйф Файнс, Майкл Гэмбон, Том Фелтон, Имелда Стонтон, Эванна Линч, Алан Рикман,

Описание: Гарри проводит свой пятый год обучения в школе Хогвартс и обнаруживает, что многие из членов волшебного сообщества отрицают сам факт недавнего состязания юного волшебника с воплощением вселенского зла Волдемортом, делая вид, что не имеют ни малейшего представления о том, что злодей вернулся.

Опасаясь, что почтенный глава Хогвартса Альбус Дамблдор распространяет лживые слухи о возвращении Волдеморта, стремясь подорвать авторитет Министра Магии Корнелиуса Фаджа и в дальнейшем занять его место, Корнелиус назначает нового профессора защиты от темных искусств, который должен будет пристально следить за Дамблдором и студентами Хогвартса.

Но одобренный министерством курс лекций по защитной магии профессора Долорес Амбридж оказывается на практике абсолютно бесполезным — юные волшебники просто неспособны противостоять действию темных сил, угрожающих им и всему волшебному сообществу. И тогда, по настоянию своих друзей, Гермионы и Рона, Гарри берет инициативу в свои руки.

Тайно встречаясь с небольшой группой студентов, называющей себя Отрядом Дамблдора, Гарри обучает их самозащите от темных сил, готовя отважных волшебников к необычной схватке, которая ждет их впереди.

Качество: BDRip 1080p
Формат: MKV
Видео кодек: H.264
Аудио кодек: AC3
Видео: (1920x800), 6760 Кбит/с, 23.976 кадра/сек
Аудио#1: AC-3, 6 ch, 640 kbps (Rus) 48.0 KHz Дубляж
Аудио#2: AC-3, 6 ch, 640 kbps (Eng) 48.0 KHz Оригинал
скриншот   скриншот   скриншот  

Общее
Уникальный идентификатор : 206915283659150623629394894471516602220 (0x9BAA6F1F8AEFB0C2BA8553F958973F6C)
Полное имя : Harry.Potter.and.the.Order.of.the.Phoenix.2007.BDRip.1080p.Rus.Eng.mkv
Формат : Matroska
Версия формата : Version 2
Размер файла : 7,76 Гбайт
Продолжительность : 2 ч. 18 м.
Общий поток : 8039 Кбит/сек
Название фильма : Гарри Поттер и орден Феникса / Harry Potter and the Order of the Phoenix (2007)
Дата кодирования : UTC 2012-07-31 07:22:50
Программа кодирования : mkvmerge v5.7.0 ('The Whirlwind') built on Jul 8 2012 20:08:51
Библиотека кодирования : libebml v1.2.3 + libmatroska v1.3.0

Видео
Идентификатор : 1
Формат : AVC
Формат/Информация : Advanced Video Codec
Профиль формата : High@L4.1
Параметр CABAC формата : Да
Параметр ReFrames формата : 5 кадров
Идентификатор кодека : V_MPEG4/ISO/AVC
Продолжительность : 2 ч. 18 м.
Битрейт : 6760 Кбит/сек
Ширина : 1920 пикселей
Высота : 800 пикселей
Соотношение сторон : 2,40:1
Частота кадров : 23,976 кадра/сек
Цветовое пространство : YUV
Субдискретизация насыщенности : 4:2:0
Битовая глубина : 8 бит
Тип развёртки : Прогрессивная
Бит/(Пиксели*Кадры) : 0.184
Размер потока : 6,37 Гбайт (82%)
Заголовок : Release by AlexKa
Библиотека кодирования : x264 core 125 r2208 d9d2288
Настройки программы : cabac=1 / ref=5 / deblock=1:-3:-3 / analyse=0x3:0x133 / me=umh / subme=10 / psy=1 / psy_rd=1.00:0.10 / mixed_ref=1 / me_range=32 / chroma_me=1 / trellis=2 / 8x8dct=1 / cqm=0 / deadzone=21,11 / fast_pskip=0 / chroma_qp_offset=-3 / threads=12 / lookahead_threads=2 / sliced_threads=0 / nr=0 / decimate=0 / interlaced=0 / bluray_compat=0 / constrained_intra=0 / bframes=5 / b_pyramid=2 / b_adapt=2 / b_bias=0 / direct=3 / weightb=1 / open_gop=0 / weightp=2 / keyint=240 / keyint_min=23 / scenecut=40 / intra_refresh=0 / rc=2pass / mbtree=0 / bitrate=6760 / ratetol=1.0 / qcomp=0.60 / qpmin=0 / qpmax=69 / qpstep=4 / cplxblur=20.0 / qblur=0.5 / ip_ratio=1.40 / pb_ratio=1.30 / aq=1:0.80
Язык : English

Аудио #1
Идентификатор : 2
Формат : AC-3
Формат/Информация : Audio Coding 3
Расширение режима : CM (complete main)
Идентификатор кодека : A_AC3
Продолжительность : 2 ч. 18 м.
Вид битрейта : Постоянный
Битрейт : 640 Кбит/сек
Каналы : 6 каналов
Расположение каналов : Front: L C R, Side: L R, LFE
Частота : 48,0 КГц
Битовая глубина : 16 бит
Метод сжатия : С потерями
Размер потока : 633 Мбайт (8%)
Заголовок : Rus
Язык : Russian

Аудио #2
Идентификатор : 3
Формат : AC-3
Формат/Информация : Audio Coding 3
Расширение режима : CM (complete main)
Идентификатор кодека : A_AC3
Продолжительность : 2 ч. 18 м.
Вид битрейта : Постоянный
Битрейт : 640 Кбит/сек
Каналы : 6 каналов
Расположение каналов : Front: L C R, Side: L R, LFE
Частота : 48,0 КГц
Битовая глубина : 16 бит
Метод сжатия : С потерями
Размер потока : 633 Мбайт (8%)
Заголовок : Eng
Язык : English

Текст #1
Идентификатор : 4
Формат : UTF-8
Идентификатор кодека : S_TEXT/UTF8
Идентификатор кодека/Информация : UTF-8 Plain Text
Заголовок : Rus forced
Язык : Russian

Текст #2
Идентификатор : 5
Формат : UTF-8
Идентификатор кодека : S_TEXT/UTF8
Идентификатор кодека/Информация : UTF-8 Plain Text
Заголовок : Rus
Язык : Russian

Текст #3
Идентификатор : 6
Формат : UTF-8
Идентификатор кодека : S_TEXT/UTF8
Идентификатор кодека/Информация : UTF-8 Plain Text
Заголовок : Eng
Язык : English

Меню
00:00:00.000 : :Chapter 01
00:04:50.957 : :Chapter 02
00:10:16.782 : :Chapter 03
00:15:19.919 : :Chapter 04
00:17:43.228 : :Chapter 05
00:20:52.417 : :Chapter 06
00:25:33.532 : :Chapter 07
00:28:07.352 : :Chapter 08
00:30:20.985 : :Chapter 09
00:34:53.925 : :Chapter 10
00:37:41.092 : :Chapter 11
00:41:48.506 : :Chapter 12
00:44:57.528 : :Chapter 13
00:50:57.387 : :Chapter 14
00:56:37.394 : :Chapter 15
01:03:28.638 : :Chapter 16
01:07:39.055 : :Chapter 17
01:11:16.105 : :Chapter 18
01:16:30.252 : :Chapter 19
01:19:16.585 : :Chapter 20
01:25:30.959 : :Chapter 21
01:31:30.651 : :Chapter 22
01:34:49.850 : :Chapter 23
01:37:42.356 : :Chapter 24
01:41:40.260 : :Chapter 25
01:45:59.353 : :Chapter 26
01:48:37.177 : :Chapter 27
01:52:40.920 : :Chapter 28
01:57:30.710 : :Chapter 29
02:03:33.239 : :Chapter 30
02:05:50.709 : :Chapter 31
02:08:26.865 : :Chapter 32
02:18:14.202 : :Chapter 33

pb.wtf



Скачать Гарри Поттер и орден Феникса через торрент http://pic.kartinco.top/images/6/qlj8g.jpg Скачать фильм Гарри Поттер и орден Феникса через торрент бесплантно в хорошем качестве Описание: Гарри проводит свой пятый год обучения в школе Хогвартс и обнаруживает, что многие из членов волшебного сообщества отрицают сам ... 9.6 10 23
Info! Золотая раздача, скачанное не засчитывается.
Торрент: Зарегистрирован [2013-11-23 16:14] · скачан: 1 137 раз
Статус: √ проверено
Размер: 7.76 GB
Как cкачать? Как скачать Гарри Поттер и орден Феникса через торрент | qTorrent

% Раздел Тема Автор DL S | L
Ultra HD (UHD: 2K, 4K, 8K) — видео сверхвысокой чёткости [ 54.57 GB ] Гарри Поттер и орден Феникса / Harry Potter and the Order of the Phoenix [2007 UHD BDRemux 2160p] DVO+2xAVO+DUB bober100 Скачать
2 | 0

28-11-2019 20:33  

Отключить всю рекламу на сайте

20-01-2014 13:31 Гарри Поттер и орден Феникса Скачать торрент  

встаньте на раздачу плисс, а то уже какой день качаюpb.wtf



20-01-2014 13:32 Гарри Поттер и орден Феникса Скачать торрент  

ГАЙК
встань на раздачу ааа((pb.wtf



21-01-2014 10:46 Гарри Поттер и орден Феникса Скачать торрент  

да пошел ты на 3 буквы автор, выложил и не сидируеш нихера, забался уже качать, другой блю рей скачал на 11гб и то быстрей, чем эту раздачу pb.wtf



    Дорогой пользователь! Огромная просьба, поблагодарите релизера, оцените раздачу и оставьте свои комментарий, если Вы скачали Гарри Поттер и орден Феникса через торрент бесплатно! Внесите свою лепту в развитие PiratBit!
    Комментировать посты могут только пользователи прошедшие не сложную регистрацию
    Показать сообщения:    

    Гарри Поттер и орден Феникса через торрент
    Скачать бесплатно Гарри Поттер и орден Феникса
    Гарри Поттер и орден Феникса скачать торрент
    Гарри Поттер и орден Феникса смотреть онлайн
    Cкачать фильм Гарри Поттер и орден Феникса бесплатно
    Гарри Поттер и орден Феникса скачать торрент в хорошем качестве
    Гарри Поттер и орден Феникса смотреть онлайн бесплатно в хорошем качестве


    Вы не можете начинать темы
    Вы не можете отвечать на сообщения
    Вы не можете редактировать свои сообщения
    Вы не можете удалять свои сообщения
    Вы не можете голосовать в опросах
    Вы не можете прикреплять файлы к сообщениям
    Вы можете скачивать файлы