1 сезон

3 сезон

iTunes

1

Line

MVO

iTunes

13

1 сезон

RePack

30

Deluxe

pack

Лицензия

ВАЖНО

ИГРА 18+

pack

RePack

MK11

RePack

jed

RePack

fifa19

RePack

RDR2

RePack

NEED FOR SPEED™ PAYBACK

4 сезон

9 сезон

Бесстыжие 9 сезон

Все сериалы

все сериалы на PB.wtf

RePack

FAR CRY 5

Anonymous, добрый вечер, мы катастрофически не успеваем собрать деньги на оплату серверов, помогите нам пожалуйста 5,10,15р., для нас важна любая помощь . В качестве благодарности мы отключим Вам всю рекламу на сайте (укажите свой ник в строку Ваше имя)!

×
  
Magnet ссылка

(Не)жданный принц / Un prince (presque) charmant (Филипп Леллуш / Philippe Lellouche) [2013, комедия, мелодрама, DVD9] R5 pb.wtf

через торрент pb.wtf

Размер: 5.69 GB | Добавлен: 7 лет 8 мес. назад | Торрент скачан:136 раз
Скачать  

23-11-2013 20:07 Скачать торрент  


(Не)жданный принц / Un prince (presque) charmant
«Ты встретишь его»
Страна: Франция
Студия: Canal+ [fr], Ciné, EuropaCorp, LGM Productions, TF1, TF1 Films Production
Жанр: комедия, мелодрама
Год выпуска: 2013
Мировая премьера: 9 января 2013
Российская премьера: 25 апреля 2013
Дата выхода DVD: 13 августа 2013
Продолжительность: 01:23:32
Перевод: Профессиональный (дублированный) [Лицензия]
Cубтитры: нет
Оригинальная аудиодорожка: нет
Режиссер: Филипп Леллуш / Philippe Lellouche
В ролях: Венсан Перес, Ваина Джоканте, Жером Киршер, Хлоя Куллу, Жак Вебер, Николь Кальфан, Мусса Мааскри, Коме Левин, Жюдит Сибони, Пьер Лаплейс
Описание: Разведенный карьерист и циник Жан-Марк не остановится ни перед чем для достижения своих целей. За подготовкой крупного контракта он едва не пропускает свадьбу собственной дочери и лишь за два дня до торжества собирается в путь. Дорога обернется для героя встречей с его полной противоположностью, романтичной и бескорыстной девушкой Мари, которая, вопреки духу времени, мечтает о принце на белом коне…
Бонусы: нет

Качество: DVD9 R5
Формат: DVD-Video
Видео кодек: MPEG2
Аудио кодек: AC3
Видео: PAL 16:9 (720x576(0.858)) MPEG Video, 25,000 кадр/сек, 8900 Кбит/сек
Аудио: Russian (Dolby AC3, 6 ch) 448 Кбит/сек, 48,0 КГц



Title: Nezhdannyj.princ.2013.DVD9
Size: 5.69 Gb ( 5 970 678,00 KBytes ) - DVD-9
Enabled regions: 1, 2, 3, 4, 5, 6, 7, 8

VTS_01 :
Play Length: 01:23:01
Video: PAL 16:9 (720x576) VBR, Auto Letterboxed
Audio:
Russian (Dolby AC3, 6 ch)

* Menus Information *

VIDEO_TS Menu
Video:
PAL 16:9 (720x576) VBR
Auto Letterboxed
Audio:
Not specified (Dolby AC3, 2 ch)
Russian Language Unit :
Title Menu

VTS_01 Menu
Video:
PAL 16:9 (720x576) VBR
Auto Letterboxed
Audio:
Not specified (Dolby AC3, 2 ch)
Russian Language Unit :
Root Menu
Общее
Полное имя : F:Новинки 2013Nezhdannyj.princ.2013.DVD9VIDEO_TSVTS_01_1.VOB
Формат : MPEG-PS
Размер файла : 1023 Мбайт
Продолжительность : 15 м.
Общий поток : 9498 Кбит/сек

Видео
Идентификатор : 224 (0xE0)
Формат : MPEG Video
Версия формата : Version 2
Профиль формата : Main@Main
Параметр BVOP формата : Да
Параметр матрицы формата : Выборочная
Параметр GOP формата : Variable
Продолжительность : 15 м.
Битрейт : 8900 Кбит/сек
Ширина : 720 пикселей
Высота : 576 пикселей
Соотношение сторон : 16:9
Частота кадров : 25,000 кадров/сек
Стандарт вещания : PAL
Цветовое пространство : YUV
Субдискретизация насыщенности : 4:2:0
Битовая глубина : 8 бит
Тип развёртки : Чересстрочная
Порядок развёртки : Верхнее поле первое
Метод сжатия : С потерями
Бит/(Пиксели*Кадры) : 0.858
Временной код первого кадра : 00:00:00:00
Оригинал временного кода : Group of pictures header
Размер потока : 955 Мбайт (93%)

Аудио
Идентификатор : 189 (0xBD)-128 (0x80)
Формат : AC-3
Формат/Информация : Audio Coding 3
Расширение режима : CM (complete main)
Параметр Endianness формата : Big
Режим смешивания : DVD-Video
Продолжительность : 15 м.
Вид битрейта : Постоянный
Битрейт : 448 Кбит/сек
Каналы : 6 каналов
Расположение каналов : Front: L C R, Side: L R, LFE
Частота : 48,0 КГц
Битовая глубина : 16 бит
Метод сжатия : С потерями
Размер потока : 48,3 Мбайт (5%)










pb.wtf



Скачать через торрент http://i60.fastpic.ru/big/2013/1123/7d/f8cba45899b5de9fd2ec37eaf304f07d.jpg Скачать фильм через торрент бесплантно в хорошем качестве Описание: Разведенный карьерист и циник Жан-Марк не остановится ни перед чем для достижения своих целей. За подготовкой крупного контракта ... 10 10 7
Info! Золотая раздача, скачанное не засчитывается.
Торрент: Зарегистрирован [2013-11-23 20:07] · скачан: 136 раз
Статус: √ проверено
Размер: 5.69 GB
Как cкачать? Как скачать через торрент | UTorrent

% Раздел Тема Автор DL S | L
S.T.A.L.K.E.R. [ 4.34 GB ] Сталкер: Тень Чернобыля/S.T.A.L.K.E.R. Shadow of Chernoby[лицензия RU GSC Game World] DoTa Скачать
1 | 0
S.T.A.L.K.E.R. [ 2.96 GB ] S.T.A.L.K.E.R.: Clear Sky/С.Т.А.Л.К.Е.Р.: Чистое небо + Мод: Ветер перемен URII GERASIMOV Скачать
1 | 1
Action FPS (1st Person) [ 5.62 GB ] Метро 2033 [RepackRUAkella] от R.G.Repacker`s BaRSSS Скачать
1 | 0
Антологии [ 7.02 GB ] S.T.A.L.K.E.R. TRILOGY [RePack RU GSC] Mr. Alphonse Скачать
1 | 1
Action FPS (1st Person) [ 1.31 GB ] Prince of Persia: Warrior Within / Принц Персии: Схватка с судьбой [RepackRUАкелла] от R.G.Repacker`s BaRSSS Скачать
1 | 0
Action FPS (1st Person) [ 1.62 GB ] Prey [RePack RU] от R.G.Repacker`s sergunia Скачать
1 | 0
Разное (Операционные системы от Microsoft) [ 24 MB ] Универсальный активатор nikolay27rus Скачать
2 | 0

28-11-2019 20:33  

Отключить всю рекламу на сайте

    Дорогой пользователь! Огромная просьба, поблагодарите релизера, оцените раздачу и оставьте свои комментарий, если Вы скачали через торрент бесплатно! Внесите свою лепту в развитие PiratBit!
    Комментировать посты могут только пользователи прошедшие не сложную регистрацию
    Показать сообщения:    

    через торрент
    Скачать бесплатно
    скачать торрент
    смотреть онлайн
    Cкачать фильм бесплатно
    скачать торрент в хорошем качестве
    смотреть онлайн бесплатно в хорошем качестве


    Вы не можете начинать темы
    Вы не можете отвечать на сообщения
    Вы не можете редактировать свои сообщения
    Вы не можете удалять свои сообщения
    Вы не можете голосовать в опросах
    Вы не можете прикреплять файлы к сообщениям
    Вы можете скачивать файлы