Ссылка на приватное зеркало нашего сайта всего за 1$. Внимание количество ограничено!!!

2 сезон

iTunes

1 сезон

1

iTunes

iTunes

iTunes

1 сезон

RePack

30

ИГРА 18+

pack

ВАЖНО

!!Акция!!

Alien_RageХит недели

RePack

MK11
pack

Забери бонус

RePack

jed

!!Акция!!

Alien_Rage

RePack

fifa19

RePack

Assassins Creed: Odyssey

RePack

NEED FOR SPEED™ PAYBACK

4 сезон

9 сезон

Бесстыжие 9 сезон

Все сериалы

все сериалы на PB.wtf

RePack

FAR CRY 5
  

Цветы войны / The Flowers of War (Чжан Имоу) [2011 г., драма, военный, история, BDRip 1080p, Дубляж, лицензия] (Crop) pb.wtf

Цветы войны через торрент pb.wtf

Размер: 8.01 GB | Добавлен: 6 лет 11 мес. назад | Торрент скачан:174 раза
Скачать  

24-11-2013 09:09 Цветы войны Скачать торрент  

Цветы войны / The Flowers of War / Jin lГ­ng shГ­ san chai

Год выпуска: 2011
Страна: Китай
Жанр: драма, военный, история
Продолжительность: 02:25:52
Перевод: Дубляж, Лицензия
Субтитры:Russian, Russian, English

Режиссер: Чжан Имоу
Продюссер: Чжан Вэйпин, Чаоинь Ден, Уильям Конг
Сценарий: Лю Хэн, Гелинь Ян

лицам до 17 лет обязательно присутствие взрослого
Мировой рейтинг IMDB 7.60 (11 994)


В ролях: Кристиан Бэйл, Ни Ни, Синю Чжан, Тяньюань Хуанг, Хань Ситин, Дуду Чжан, Тун Давэй, Ацуро Ватабэ, Цао Кэфань, Юань Яньчунци, Александр Коврижных, Рамиля Искандер, Диомид Виноградов, Александра Остроухова, Моника Санторо

Описание: Фильм основан на реальных событиях. Действия разворачиваются в период японо-китайской войны. Главный герой, американский гробовщик Джон, направляется в Католическую церковь в Нанкине, чтобы подготовить священника к похоронам. По прибытию он оказывается единственным мужчиной среди учениц монастыря и проституток из соседнего борделя в эпицентре военных действий. Оказавшись в таком положении, он выдаёт себя за священника и пытается спасти обе группы от ужасов вторжения японской армии...

Доп. информация: Внимание: (CROP) Справа и слева видеоряд обрезан, что дает возможность просмотра на полный экран (без черных полос) на телевизорах с соотношением сторон 16:9 без изменения пропорций.

Качество: BDRip 1080p
Формат: MKV
Видео кодек: H.264
Аудио кодек: AC3
Видео: x264, 1920 x 1080, (16:9) 23.976 fps, 7411 Kbps, ( 0.149 bit/pixel)
Аудио#1: AC-3, 48.0 KHz, 6 ch, 384 Kbps, CBR (Russian)
Субтитры:Russian, Russian, English




Общее
Уникальный идентификатор : 214386442026840493578691038159680169005 (0xA14953AB972A135188B9AC0783E1E42D)
Полное имя : E:The.Flowers.Of.War.2011.BDRip.1080p.(Crop).mkv
Формат : Matroska
Версия формата : Version 4 / Version 2
Размер файла : 8,01 Гбайт
Продолжительность : 2 ч. 25 м.
Общий поток : 7852 Кбит/сек
Название фильма : Цветы войны / The Flowers of War / Jin líng shí san chai (2011) BDRip 1080p (Crop)
Дата кодирования : UTC 2013-11-22 11:14:58
Программа кодирования : mkvmerge v6.2.0 ('Promised Land') built on Apr 28 2013 12:22:01
Библиотека кодирования : libebml v1.3.0 + libmatroska v1.4.0

Видео
Идентификатор : 1
Формат : AVC
Формат/Информация : Advanced Video Codec
Профиль формата : Main@L4.0
Параметр CABAC формата : Нет
Параметр ReFrames формата : 4 кадра
Идентификатор кодека : V_MPEG4/ISO/AVC
Продолжительность : 2 ч. 25 м.
Битрейт : 7411 Кбит/сек
Ширина : 1920 пикселей
Высота : 1080 пикселей
Соотношение сторон : 16:9
Частота кадров : 23,976 кадра/сек
Цветовое пространство : YUV
Субдискретизация насыщенности : 4:2:0
Битовая глубина : 8 бит
Тип развёртки : Прогрессивная
Бит/(Пиксели*Кадры) : 0.149
Размер потока : 7,46 Гбайт (93%)
Заголовок : The Flowers of War / Jin líng shí san chai (2011) BDRip 1080p (Crop).mkv
Библиотека кодирования : x264 core 130 r2273 b3065e6
Настройки программы : cabac=0 / ref=4 / deblock=0:-1:-1 / analyse=0:0 / me=dia / subme=0 / psy=1 / psy_rd=1.00:0.15 / mixed_ref=0 / me_range=16 / chroma_me=1 / trellis=0 / 8x8dct=0 / cqm=0 / deadzone=21,11 / fast_pskip=1 / chroma_qp_offset=0 / threads=3 / lookahead_threads=1 / sliced_threads=0 / nr=0 / decimate=1 / interlaced=0 / bluray_compat=0 / constrained_intra=0 / bframes=4 / b_pyramid=2 / b_adapt=0 / b_bias=0 / direct=1 / weightb=0 / open_gop=0 / weightp=0 / keyint=240 / keyint_min=24 / scenecut=0 / intra_refresh=0 / rc=abr / mbtree=0 / bitrate=7411 / ratetol=1.0 / qcomp=0.60 / qpmin=0 / qpmax=69 / qpstep=4 / ip_ratio=1.40 / pb_ratio=1.30 / aq=0
Язык : English
Основные цвета : BT.709-5, BT.1361, IEC 61966-2-4, SMPTE RP177
Характеристики трансфера : BT.709-5, BT.1361
Коэффициенты матрицы : BT.709-5, BT.1361, IEC 61966-2-4 709, SMPTE RP177

Аудио
Идентификатор : 2
Формат : AC-3
Формат/Информация : Audio Coding 3
Расширение режима : CM (complete main)
Идентификатор кодека : A_AC3
Продолжительность : 2 ч. 25 м.
Вид битрейта : Постоянный
Битрейт : 384 Кбит/сек
Каналы : 6 каналов
Расположение каналов : Front: L C R, Side: L R, LFE
Частота : 48,0 КГц
Битовая глубина : 16 бит
Метод сжатия : С потерями
Размер потока : 401 Мбайт (5%)
Заголовок : Dub
Язык : Russian

Текст #1
Идентификатор : 3
Формат : UTF-8
Идентификатор кодека : S_TEXT/UTF8
Идентификатор кодека/Информация : UTF-8 Plain Text
Язык : Russian

Текст #2
Идентификатор : 4
Формат : UTF-8
Идентификатор кодека : S_TEXT/UTF8
Идентификатор кодека/Информация : UTF-8 Plain Text
Язык : Russian

Текст #3
Идентификатор : 5
Формат : UTF-8
Идентификатор кодека : S_TEXT/UTF8
Идентификатор кодека/Информация : UTF-8 Plain Text
Язык : English

Меню
00:00:00.000 : en:Chapter 1
00:08:11.908 : en:Chapter 2
00:15:41.106 : en:Chapter 3
00:22:23.216 : en:Chapter 4
00:29:36.399 : en:Chapter 5
00:35:34.715 : en:Chapter 6
00:40:04.610 : en:Chapter 7
00:51:17.574 : en:Chapter 8
01:01:56.796 : en:Chapter 9
01:07:57.073 : en:Chapter 10
01:14:03.939 : en:Chapter 11
01:21:18.707 : en:Chapter 12
01:30:07.235 : en:Chapter 13
01:37:43.107 : en:Chapter 14
01:43:31.580 : en:Chapter 15
01:49:49.624 : en:Chapter 16
01:59:46.762 : en:Chapter 17
02:05:38.447 : en:Chapter 18
02:10:29.738 : en:Chapter 19
02:17:06.718 : en:Chapter 20

pb.wtf



Скачать Цветы войны через торрент http://i40.fastpic.ru/big/2012/0902/e8/d88a7abcc804d25d0a0a1bc3b8cdbde8.gif Скачать фильм Цветы войны через торрент бесплантно в хорошем качестве Описание: Фильм основан на реальных событиях. Действия разворачиваются в период японо-китайской войны. Главный герой, американский ... 9.9 10 11
Info! Золотая раздача, скачанное не засчитывается.
Торрент: Зарегистрирован [2013-11-24 09:09] · скачан: 174 раз
Статус: √ проверено
Размер: 8.01 GB
Как cкачать? Как скачать Цветы войны через торрент | qTorrent

% Раздел Тема Автор DL S | L
Азиатские фильмы [ 2.9 GB ] Цветы войны / The Flowers of War / Jin líng shí san chai [2011 военный история BDRip] killermax2013 Скачать
1 | 0
Фильмы [HD 720p, 1080p] (Хороший звук DUB, MVO) [ 9.88 GB ] Цветы войны / The Flowers of War [2011 военный история BDRip 720p лицензия] Ke$h@ Скачать
1 | 0
Фильмы (DVD фильмы) [ 5.82 GB ] Цветы войны / The Flowers of War / Jin ling shi san chai [2011 военный история DVD9] R5 voovaz Скачать
1 | 0
Азиатские фильмы [ 1.45 GB ] Цветы войны / The Flowers of War / Jin ling shi san chai [2011 военный история HDRip DUB лицензия] PsYcho Скачать
1 | 0

28-11-2019 20:33  

Отключить всю рекламу на сайте

24-11-2013 11:57 Цветы войны Скачать торрент  

достойный фильмpb.wtf



26-11-2013 16:29 Цветы войны Скачать торрент  

отличный фильм! спасибо большое...pb.wtf



    Дорогой пользователь! Огромная просьба, поблагодарите релизера, оцените раздачу и оставьте свои комментарий, если Вы скачали Цветы войны через торрент бесплатно! Внесите свою лепту в развитие PiratBit!
    Комментировать посты могут только пользователи прошедшие не сложную регистрацию
    Показать сообщения:    

    Цветы войны через торрент
    Скачать бесплатно Цветы войны
    Цветы войны скачать торрент
    Цветы войны смотреть онлайн
    Cкачать фильм Цветы войны бесплатно
    Цветы войны скачать торрент в хорошем качестве
    Цветы войны смотреть онлайн бесплатно в хорошем качестве


    Вы не можете начинать темы
    Вы не можете отвечать на сообщения
    Вы не можете редактировать свои сообщения
    Вы не можете удалять свои сообщения
    Вы не можете голосовать в опросах
    Вы не можете прикреплять файлы к сообщениям
    Вы можете скачивать файлы