2 сезон

iTunes

MVO

1

2 сезон

iTunes

iTunes

1 сезон

RePack

30

Новинка

ВАЖНО

ИГРА 18+

pack

RePack

MK11
pack

Легкие деньги

RePack

jed

RePack

fifa19

RePack

RDR2

RePack

NEED FOR SPEED™ PAYBACK

4 сезон

9 сезон

Бесстыжие 9 сезон

Все сериалы

все сериалы на PB.wtf

RePack

FAR CRY 5

Anonymous, добрый вечер, мы не успеваем собрать деньги на оплату серверов за декабрь и январь, помогите нам пожалуйста в это трудное время. В качестве благодарности мы отключим Вам всю рекламу на сайте (укажите свой ник в строку Ваше имя)!

×
  
Magnet ссылка

Невозможное / The Impossible / Lo imposible (Хуан Антонио Байона / Juan Antonio Bayona) [2012 г., триллер, драма, BDRip, лицензия] pb.wtf

Невозможное через торрент pb.wtf

Раздают: 2 [ 0 KB/s ]
Размер: 1.46 GB | Добавлен: 7 лет 1 мес. назад | Торрент скачан:1511 раз
Скачать  

22-07-2013 20:22 Невозможное Скачать торрент  

Невозможное / Lo imposible

«Nothing is more powerful than the human spirit.»

  • Год выпуска:2012
  • Страна:Испания
  • Жанр:драма
  • Продолжительность: 01:53:31
  • Перевод:Профессиональный (полное дублирование) |Лицензия|

  • Субтитры: Нет
    • Режиссер:Х.А. Байона / J.A. Bayona

  • В ролях:Наоми Уоттс (Maria), Юэн МакГрегор (Henry), Том Холлэнд (Lucas), Сэмюэл Джослин (Thomas), Окли Пендергаст (Simon), Марта Этура (Simone), Шенке Мёринг (Karl), Джеральдин Чаплин (Old Woman), Плой Хиндачоте (Caregiver), Жомжаои Сэ-Лим (Red Cross Nurse), Йохан Сандберг (Daniel), Жан Роланд Сандберг (Daniel's Father)
    • Описание:
      Лента о событиях, разворачивающихся на фоне цунами 2004 года.

  • Рейтинг
    kinopoisk.ru: 8.074 (20 498)
    imdb.com: 7.60 (75 609)
    MPAA: PG-13 - Детям до 13 лет просмотр не желателен
    • Качество:BDRip
    • Формат:AVI
    • Видео кодек: XviD
    • Аудио кодек: AC3
    • Видео: XviD, 720x304 (2.35:1), 1383 kbps, 24 fps, 0,263 bpp
    • Аудио: AC3 / 5.1 / 48 kHz / 448 kbps / 16 bit

    General
    Complete name : D:ТорентыNevozmozhnoje.2012.XviD.DUB.AC3.BDRip.avi
    Format : AVI
    Format/Info : Audio Video Interleave
    File size : 1.46 GiB
    Duration : 1h 53mn
    Overall bit rate : 1 841 Kbps
    Movie name : Невозможное / The Impossible / Lo imposible (2012) BDRip — by KenoZavr
    Director : KenoZavr & Youtracker.net
    Writing application : VirtualDubMod 1.5.10.3 | www.virtualdub-fr.org || (build 2550/release)

    Video
    ID : 0
    Format : MPEG-4 Visual
    Format profile : Advanced Simple@L5
    Format settings, BVOP : 1
    Format settings, QPel : No
    Format settings, GMC : No warppoints
    Format settings, Matrix : Custom
    Codec ID : XVID
    Codec ID/Hint : XviD
    Duration : 1h 53mn
    Bit rate : 1 384 Kbps
    Width : 720 pixels
    Height : 304 pixels
    Display aspect ratio : 2.35:1
    Frame rate : 24.000 fps
    Color space : YUV
    Chroma subsampling : 4:2:0
    Bit depth : 8 bits
    Scan type : Progressive
    Compression mode : Lossy
    Bits/(Pixel*Frame) : 0.263
    Stream size : 1.10 GiB (75%)
    Writing library : XviD 65

    Audio
    ID : 1
    Format : AC-3
    Format/Info : Audio Coding 3
    Mode extension : CM (complete main)
    Codec ID : 2000
    Duration : 1h 53mn
    Bit rate mode : Constant
    Bit rate : 448 Kbps
    Channel(s) : 6 channels
    Channel positions : Front: L C R, Side: L R, LFE
    Sampling rate : 48.0 KHz
    Bit depth : 16 bits
    Compression mode : Lossy
    Stream size : 364 MiB (24%)
    Alignment : Split accross interleaves
    Interleave, duration : 42 ms (1.00 video frame)
    Interleave, preload duration : 500 ms

    © ОформлениеПостер by Vetalpb.wtf



  • Скачать Невозможное через торрент http://i3.imageban.ru/out/2013/07/23/4d1ab155ab6c5d49528348634b50426e.png Скачать фильм Невозможное через торрент бесплантно в хорошем качестве Описание:Лента о событиях, разворачивающихся на фоне цунами 2004 года.Рейтингkinopoisk.ru: 8.074 (20 498)imdb.com: 60 (75 609)MPAA: PG-13 ... 9.8 10 36
    Info! Золотая раздача, скачанное не засчитывается.
    Торрент: Зарегистрирован [2013-11-24 17:22] · скачан: 1 511 раз
    Статус: √ проверено
    Размер: 1.46 GB
    Как cкачать? Как скачать Невозможное через торрент | UTorrent

    % Раздел Тема Автор DL S | L
    Фильмы 2012 [ 1.46 GB ] Невозможное / The Impossible / Lo imposible [2012 BDRip] diletant Скачать
    1 | 1
    Фильмы [HD 720p, 1080p] (Хороший звук DUB, MVO) [ 13.06 GB ] Невозможное / The Impossible / Lo imposible [2012 BDRip 1080p] diletant Скачать
    1 | 0
    Фильмы [HD 720p, 1080p] (Хороший звук DUB, MVO) [ 8.1 GB ] Невозможное / The Impossible / Lo imposible [2012 BDRip 720p] diletant Скачать
    1 | 0

    28-11-2019 20:33  

    Отключить всю рекламу на сайте

    24-11-2013 18:04 Невозможное Скачать торрент  

    описание к фильму.
    Как говорится коротко, лаконично и нечего лишнего)) yespb.wtf



    24-11-2013 19:35 Невозможное Скачать торрент  

    mastre писал(а):

    описание к фильму.
    Как говорится коротко, лаконично и нечего лишнего)) yes

    А тут и добавить нечего!)) Отдыхала семья, волна прошла(цунами), и показывают как ищут друг друга, что в больнице происходит.pb.wtf



    04-12-2013 02:01 Невозможное Скачать торрент  

    Черт... Выдает, что «торрент неверно закодирован».pb.wtf



      Дорогой пользователь! Огромная просьба, поблагодарите релизера, оцените раздачу и оставьте свои комментарий, если Вы скачали Невозможное через торрент бесплатно! Внесите свою лепту в развитие PiratBit!
      Комментировать посты могут только пользователи прошедшие не сложную регистрацию
      Показать сообщения:    

      Невозможное через торрент
      Скачать бесплатно Невозможное
      Невозможное скачать торрент
      Невозможное смотреть онлайн
      Cкачать фильм Невозможное бесплатно
      Невозможное скачать торрент в хорошем качестве
      Невозможное смотреть онлайн бесплатно в хорошем качестве


      Вы не можете начинать темы
      Вы не можете отвечать на сообщения
      Вы не можете редактировать свои сообщения
      Вы не можете удалять свои сообщения
      Вы не можете голосовать в опросах
      Вы не можете прикреплять файлы к сообщениям
      Вы можете скачивать файлы