Ссылка на приватное зеркало нашего сайта всего за 1$. Внимание количество ограничено!!!

2 сезон

iTunes

1 сезон

1

2 сезон

2 сезон

iTunes

1 сезон

RePack

30

Новинка

ВАЖНО

ИГРА 18+

pack

RePack

MK11
pack

Забери бонус

RePack

jed

!!Акция!!

Alien_Rage

RePack

fifa19

RePack

Assassins Creed: Odyssey

RePack

NEED FOR SPEED™ PAYBACK

4 сезон

9 сезон

Бесстыжие 9 сезон

Все сериалы

все сериалы на PB.wtf

RePack

FAR CRY 5
  

Великолепный век / Muhtesem Yuzyil (4 сезон, серия 9 ("112") (Дурул Тайлан, Ягмур Тайлан) [2013 г., драма, мелодрама, военный, биография, история, WEB-DLRip, Любительский одноголосый] pb.wtf

Великолепный век через торрент pb.wtf

Размер: 1.37 GB | Добавлен: 7 лет назад | Торрент скачан:427 раз
Скачать  

25-11-2013 08:16 Великолепный век Скачать торрент  

Великолепный век / Muhtesem Yuzyil
Год выпуска: 2013
Страна: Турция
Жанр: драма, мелодрама, военный, биография, история,
Продолжительность: 1ч.46мин.
Перевод: Любительский одноголосый

Режиссер: Дурул Тайлан Ягмур Тайлан
Продюссер: Тимур Савчи
Сценарий: Мераль Окай

Бюджет: TRL 4 000 000
Премьера в мире: 2011

IMDB: 5.60
Кинопоиск 7.406

В ролях: Халит Эргенч, Вахиде Перчин, Нур Айсан, Мехмет Гюнсюр, Беррак Тюзюнатач, Арас Булут Ийнемли, Озан Гювен, Пелин Карахан, Мерве Болугур, Энгин Озтюрк, Тольга Сарыташ, Сарп Аккая, Мельтем Джумбул, Серкан Алтунорак, Тунджель Куртиз,

Описание: Сериал повествует о правлении султана Сулеймана Великолепного и его страстной любви к украинской красавице Роксалане. Согласно канонам исламской веры, султан мог иметь четырех законных жен и столько наложниц, сколько сможет содержать. При этом, дети первой жены становились преемниками престола. Роксолана еще девочкой была захвачена в плен и переправлена в Стамбул, где визирь Ибрагим-паша подарил ее султану. Путем интриг, подкупа и умелого обольщения украинская красавица стала женой султана. После принятия ислама она получила имя Хюррем. Сулейман возвел Роксолану в ранг главной жены, и называл ее не иначе как «милой сердцу». Роксолана была не только искусной любовницей, но и умной, интересной собеседницей, хорошо разбирающейся в искусстве и государственных делах. Чтобы реализовать свои амбиции в султанате, Хюррем устраняла всех, кто мог ей в этом помешать. В основу сценария легло несколько исторических романов и средневековых документов.

Качество: WEB-DLRip
Формат: AVI
Видео кодек: XviD
Аудио кодек: MP3
Видео: 720x400 (1.80:1), 25 fps, XviD build 50, 1439 kbps avg, 0.20 bit/pixel
Аудио#1: 44.100 kHz, MPEG Layer 3, 2 ch, 192.00 kbps avg



Полное имя : 112_seria_Muhtesem_Yuzyill.avi
Формат : AVI
Формат/Информация : Audio Video Interleave
Размер файла : 1,37 Гбайт
Продолжительность : 1 ч. 46 м.
Общий поток : 1796 Кбит/сек
Программа кодирования : VirtualDubMod 1.5.10.3
Библиотека кодирования : VirtualDub build 32842/release

Видео
Идентификатор : 0
Формат : MPEG-4 Visual
Профиль формата : Advanced Simple@L5
Параметр BVOP формата : 2
Параметр QPel формата : Нет
Параметр GMC формата : Без точки перехода
Параметр матрицы формата : Default (H.263)
Идентификатор кодека : XVID
Идентификатор кодека/Подсказка : XviD
Продолжительность : 1 ч. 49 м.
Битрейт : 1595 Кбит/сек
Ширина : 720 пикселей
Высота : 400 пикселей
Соотношение сторон : 16:9
Частота кадров : 25,000 кадров/сек
Цветовое пространство : YUV
Субдискретизация насыщенности : 4:2:0
Битовая глубина : 8 бит
Тип развёртки : Прогрессивная
Метод сжатия : С потерями
Бит/(Пиксели*Кадры) : 0.221
Размер потока : 1,22 Гбайт (89%)
Библиотека кодирования : XviD 1.2.1 (UTC 2008-12-04)

Аудио
Идентификатор : 1
Формат : MPEG Audio
Версия формата : Version 1
Профиль формата : Layer 3
Идентификатор кодека : 55
Идентификатор кодека/Подсказка : MP3
Продолжительность : 1 ч. 52 м.
Вид битрейта : Постоянный
Битрейт : 192 Кбит/сек
Каналы : 2 канала
Частота : 44,1 КГц
Метод сжатия : С потерями
Размер потока : 150 Мбайт (11%)
Выравнивание : Разделение по промежуткам
Продолжительность промежутка : 40 мс. (1,00 видеокадр)
Время предзагрузки промежутка : 500 мс.
Библиотека кодирования : L3.99r
Настройки программы : -m s -V 4 -q 2 -lowpass 18.6 -b 192

pb.wtf



Скачать Великолепный век через торрент http://pic.kartinco.top/images/6/22koa.jpg Скачать фильм Великолепный век через торрент бесплантно в хорошем качестве Описание: Сериал повествует о правлении султана Сулеймана Великолепного и его страстной любви к украинской красавице Роксалане. Согласно ... 9.2 10 11
Info! Золотая раздача, скачанное не засчитывается.
Торрент: Зарегистрирован [2013-11-25 08:16] · скачан: 427 раз
Статус: √ проверено
Размер: 1.37 GB
Как cкачать? Как скачать Великолепный век через торрент | qTorrent

% Раздел Тема Автор DL S | L
Зарубежные сериалы [ 33.21 GB ] Великолепный век / Muhtesem Yuzyil [2012 военный биография история WEB-DLRip многоголосый DoGmA_TM Скачать
2 | 0
Зарубежные сериалы [ 73.65 GB ] Великолепный век / Muhtesem Yuzyil /Сезоны 1 и 2 из 2 / Серии: 1-63 [2012 военный биография история] DoGmA_TM Скачать
1 | 0
Зарубежные сериалы [ 43.27 GB ] Великолепный век / Muhtesem Yuzyil [2014-2015 г военный биография история SATRip многоголосый " ТК Домашний "] DoGmA_TM Скачать
1 | 1
Зарубежные сериалы [ 895 MB ] Великолепный век / Muhtesem Yuzyil [2014 военный биография история SATRip многоголосый " ТК Домашний "] DoGmA_TM Скачать
1 | 0
Зарубежные сериалы [ 1.04 GB ] Великолепный век / Muhtesem Yuzyil [2012 военный биография история HDRip VO] DoGmA_TM Скачать
1 | 0
Зарубежные сериалы [ 1.46 GB ] Великолепный век / Muhtesem Yuzyil сезон 4 серия 139 [2014 военный биография история WEB-DLRip Любительский одноголосый закадровый ] DoGmA_TM Скачать
1 | 0
Зарубежные сериалы [ 1.18 GB ] Великолепный век / Muhtesem Yuzyil [2013 военный биография история HDTVRip] DoGmA_TM Скачать
1 | 0

28-11-2019 20:33  

Отключить всю рекламу на сайте

    Дорогой пользователь! Огромная просьба, поблагодарите релизера, оцените раздачу и оставьте свои комментарий, если Вы скачали Великолепный век через торрент бесплатно! Внесите свою лепту в развитие PiratBit!
    Комментировать посты могут только пользователи прошедшие не сложную регистрацию
    Показать сообщения:    

    Великолепный век через торрент
    Скачать бесплатно Великолепный век
    Великолепный век скачать торрент
    Великолепный век смотреть онлайн
    Cкачать фильм Великолепный век бесплатно
    Великолепный век скачать торрент в хорошем качестве
    Великолепный век смотреть онлайн бесплатно в хорошем качестве


    Вы не можете начинать темы
    Вы не можете отвечать на сообщения
    Вы не можете редактировать свои сообщения
    Вы не можете удалять свои сообщения
    Вы не можете голосовать в опросах
    Вы не можете прикреплять файлы к сообщениям
    Вы можете скачивать файлы