MEGA SALE -50% FORZA HORIZON 4 ULTIMATE+ВСЕ DLC+ОНЛАЙН всего за 599р. 299 руб. (супер цена). Внимание количество ограничено!!!

iTunes

1+1

iTunes

мы

iTunes

1

iTunes

Чернобыль

iTunes

Ральф против интернета

Лицензия

ПШазам

Лицензия

Игра престолов

Лицензия

30
pack

ВАЖНО

!!Акция!!

Alien_RageХит недели

RePack

Resident Evil 21

ИГРА 18+

pack

RePack

Metro:Exodus

!!Акция!!

Alien_Rage

RePack

fifa19

RePack

Assassins Creed: Odyssey

RePack

NEED FOR SPEED™ PAYBACK

3 сезон

9 сезон

Бесстыжие 9 сезон

Все сериалы

все сериалы на PB.wtf

RePack

FAR CRY 5
Ребята, катастрофически не хватает 7730р. для оплаты серверов за АВГУСТ (всвязи с блокировками трафик упал в 3 раза), 1-2р., выручайте.
  

В отрыв! / Human Traffic (Джастин Керриган) [1999 г., Драма, комедия, музыка, DVDRip, Профессиональный двухголосый] pb.wtf

В отрыв! через торрент pb.wtf

Размер: 1.45 GB | Добавлен: 5 лет 9 мес. назад | Торрент скачан:68 раз
Скачать  

26-11-2013 12:10 В отрыв! Скачать торрент  

В отрыв! | Human Traffic
Год выпуска: 1999

Страна: Великобритания | Ирландия

Жанр: Драма | Комедия | Музыка
Продолжительность: 01:39:28
Перевод: Профессиональный двухголосый




Режиссер: Джастин Керриган | Justin Kerrigan
В ролях: Джон Симм | Лоррейн Пилкингтон | Шон Паркес | Никола Рейнольдс | Дэнни Дайер | Дин Дейвис | Питер Альберт | Жан Андерсон




Бюджет: £ 2 200 000
Премьера в мире: 4 июня 1999

|




Описание: Возрадуйтесь страждущие, ибо пробил ваш час! Пришла святая пятница, вечером которой рай распахнет для вас свои двери! В этот день величественный и прекрасный уик-энд триумфально раздавит серые и тусклые будни. Оглушительная музыка ворвется под кожу, проткнет вас своим ритмом, словно шприцем, навсегда избавив тело от усталости.
Особые таблетки взорвут голову и вознесут ее в заоблачные дали. Пьянящий дым заполнит легкие, остановив время и превратив его в бесконечный сладкий кайф. И тогда на лбу у утопающего в веселье мира запылает яркая татуировка: «Музыка, наркотики и секс!».




Качество: DVDRip
Формат: AVI
Видео кодек: XviD
Аудио кодек: AC-3
Видео: XviD | 1701 kbps | 720x384 | 24.000 fps
Аудио: Audio Coding 3 | 384 kbps | 48.0 KHz | 6 ch




Общее
Полное имя : D:Видео В отрыв!.avi
Формат : AVI
Формат/Информация : Audio Video Interleave
Размер файла : 1,45 Гбайт
Продолжительность : 1 ч. 39 м.
Общий поток : 2094 Кбит/сек
Программа кодирования : VirtualDubMod 1.5.10.3 | www.virtualdub-fr.org || (build 2550/release)

Видео
Идентификатор : 0
Формат : MPEG-4 Visual
Профиль формата : Advanced Simple@L5
Параметр BVOP формата : 2
Параметр QPel формата : Нет
Параметр GMC формата : Без точки перехода
Параметр матрицы формата : Выборочная
Идентификатор кодека : XVID
Идентификатор кодека/Подсказка : XviD
Продолжительность : 1 ч. 39 м.
Битрейт : 1701 Кбит/сек
Ширина : 720 пикселей
Высота : 384 пикселя
Соотношение сторон : 1,85:1
Частота кадров : 24,000 кадра/сек
Цветовое пространство : YUV
Субдискретизация насыщенности : 4:2:0
Битовая глубина : 8 бит
Тип развёртки : Прогрессивная
Метод сжатия : С потерями
Бит/(Пиксели*Кадры) : 0.256
Размер потока : 1,18 Гбайт (81%)
Библиотека кодирования : XviD 73

Аудио
Идентификатор : 1
Формат : AC-3
Формат/Информация : Audio Coding 3
Расширение режима : CM (complete main)
Параметр Endianness формата : Big
Идентификатор кодека : 2000
Продолжительность : 1 ч. 39 м.
Вид битрейта : Постоянный
Битрейт : 384 Кбит/сек
Каналы : 6 каналов
Расположение каналов : Front: L C R, Side: L R, LFE
Частота : 48,0 КГц
Битовая глубина : 16 бит
Метод сжатия : С потерями
Размер потока : 273 Мбайт (18%)
Выравнивание : Разделение по промежуткам
Продолжительность промежутка : 42 мс. (1,00 видеокадр)
Время предзагрузки промежутка : 500 мс.

pb.wtf



Скачать В отрыв! через торрент http://pic.kartinco.top/images/6/2a29a.jpg Скачать фильм В отрыв! через торрент бесплантно в хорошем качестве Описание: Возрадуйтесь страждущие, ибо пробил ваш час! Пришла святая пятница, вечером которой рай распахнет для вас свои двери! В этот день ... 10 10 9
Info! Золотая раздача, скачанное не засчитывается.
Торрент: Зарегистрирован [2013-11-26 12:10] · скачан: 68 раз
Статус: √ проверено
Размер: 1.45 GB
Как cкачать? Как скачать В отрыв! через торрент | qTorrent

% Раздел Тема Автор DL S | L
Фильмы (Blu-ray, BD-Remux, HDDVD) [ 19.44 GB ] В отрыв! / Human Traffic [1999 музыка BD-Remux многоголосый] Skribl Скачать
1 | 0
Официальные cаундтреки к зарубежным фильмам [ 353 MB ] В отрыв! - Human Traffic 1999 / MP3 / 320 kbps / Soundtrack Skribl Скачать
1 | 0


>> Регистрируемся здесь <<






Отзывы и комментарии о схеме читаем и пишем здесь: ---> Отзывы и комментарии о схеме

Новые благодарочки в телеграм довольных пользователей:
скриншот   скриншот   скриншот   скриншот   скриншот

26-11-2013 13:02 В отрыв! Скачать торрент  

лучший фильм из мною просмотренных (в данном стиле и тематике), а саунд как и фильм -навечно останется на компе!pb.wtf



    Дорогой пользователь! Огромная просьба, поблагодарите релизера, оцените раздачу и оставьте свои комментарий, если Вы скачали В отрыв! через торрент бесплатно! Внесите свою лепту в развитие PiratBit!
    Комментировать посты могут только пользователи прошедшие не сложную регистрацию
    Показать сообщения:    

    В отрыв! через торрент
    Скачать бесплатно В отрыв!
    В отрыв! скачать торрент
    В отрыв! смотреть онлайн
    Cкачать фильм В отрыв! бесплатно
    В отрыв! скачать торрент в хорошем качестве
    В отрыв! смотреть онлайн бесплатно в хорошем качестве


    Вы не можете начинать темы
    Вы не можете отвечать на сообщения
    Вы не можете редактировать свои сообщения
    Вы не можете удалять свои сообщения
    Вы не можете голосовать в опросах
    Вы не можете прикреплять файлы к сообщениям
    Вы можете скачивать файлы