Ссылка на приватное зеркало нашего сайта всего за 1$. Внимание количество ограничено!!!

2 сезон

iTunes

1 сезон

1

iTunes

iTunes

iTunes

1 сезон

RePack

30

ИГРА 18+

pack

ВАЖНО

!!Акция!!

Alien_RageХит недели

RePack

MK11
pack

Забери бонус

RePack

jed

!!Акция!!

Alien_Rage

RePack

fifa19

RePack

Assassins Creed: Odyssey

RePack

NEED FOR SPEED™ PAYBACK

4 сезон

9 сезон

Бесстыжие 9 сезон

Все сериалы

все сериалы на PB.wtf

RePack

FAR CRY 5
  

Человек из стали / Man of Steel (Зак Снайдер / Zack Snyder) [2013, фантастика, фэнтези, боевик, BDRip 1080p, DUB] [Лицензия] pb.wtf

Человек из стали через торрент pb.wtf

Размер: 14.44 GB | Добавлен: 6 лет 10 мес. назад | Торрент скачан:1115 раз
Скачать  

18-10-2013 19:42 Человек из стали Скачать торрент  

Человек из стали / Man of Steel

Год выпуска : 2013
Страна: США, Канада, Великобритания
Жанр: Фантастика, фэнтези, боевик, приключения

Продолжительность: 02:23:03
Перевод: Дубляж [Лицензия]

Субтитры: Нет
Режиссер: Зак Снайдер / Zack Snyder
В ролях: Генри Кавилл (Clark Kent /Kal-El), Эми Адамс (Lois Lane), Майкл Шеннон (General Zod), Рассел Кроу (Jor-El), Дайан Лэйн (Martha Kent), Кевин Костнер (Jonathan Kent), Антье Трауэ (Faora-Ul), Лоренс Фишбёрн (Perry White), Кристофер Мелони (Colonel Nathan Hardy), Гарри Дж. Ленникс (General Swanwick), Ричард Шифф (Dr. Emil Hamilton), Айелет Зурер (Lara Lor-Van)
Описание: Кларк Кент/Кал-Эл - молодой человек, который чувствует себя чужаком из-за своей невероятной силы. Много лет назад он был отправлен на Землю с развитой планеты Криптон, и теперь задается вопросом: зачем?
Воспитанный приемными родителями Мартой и Джонатаном Кентами, Кларк знает: обладать сверхспособностями - значит принимать сложные решения. Но когда человечество более всего нуждается в стабильности, оно подвергается нападению. Сможет ли герой восстановить мир, или воспользуется своей силой для того, чтобы окончательно его разрушить?
Рейтинг

imdb.com: 7.60 (234 726)
MPAA: PG-13 - Детям до 13 лет просмотр не желателен
Качество: BDRip 1080p
Формат: MKV
Видео кодек: AVC
Аудио кодек: AC3/DTS
Видео: AVC, 1920x800 (2.40:1), 12500 kbps, 23,976 fps
Аудио №1: русский / AC3 / 5.1 / 48 kHz / 448 kbps / 16 bit
Аудио №2: английский / DTS / 5.1 / 48 kHz / 1510 kbps / 24 bit

General
Unique ID : 226337684575304914523708789404553703042 (0xAA470D6BD5D2AEC6A89422DA5F87EE82)
Complete name : I:Man.of.Steel.2013.BluRay.1080p.DTS.x264-CHD1.mkv
Format : Matroska
Format version : Version 2
File size : 14.4 GiB
Duration : 2h 23mn
Overall bit rate : 14.5 Mbps
Encoded date : UTC 2013-10-18 16:49:15
Writing application : mkvmerge v6.3.0 ('You can't stop me!') built on Jun 28 2013 20:09:41
Writing library : libebml v1.3.0 + libmatroska v1.4.0

Video
ID : 1
Format : AVC
Format/Info : Advanced Video Codec
Format profile : High@L4.1
Format settings, CABAC : Yes
Format settings, ReFrames : 5 frames
Codec ID : V_MPEG4/ISO/AVC
Duration : 2h 23mn
Bit rate : 12.5 Mbps
Width : 1 920 pixels
Height : 800 pixels
Display aspect ratio : 2.40:1
Frame rate : 23.976 fps
Color space : YUV
Chroma subsampling : 4:2:0
Bit depth : 8 bits
Scan type : Progressive
Bits/(Pixel*Frame) : 0.339
Stream size : 12.2 GiB (84%)
Title : Man.of.Steel.2013
Writing library : x264 core 138 r2356 a1d3d17
Encoding settings : cabac=1 / ref=5 / deblock=1:-3:-3 / analyse=0x3:0x113 / me=umh / subme=10 / psy=1 / psy_rd=1.05:0.10 / mixed_ref=1 / me_range=32 / chroma_me=1 / trellis=2 / 8x8dct=1 / cqm=0 / deadzone=21,11 / fast_pskip=0 / chroma_qp_offset=-2 / threads=18 / lookahead_threads=1 / sliced_threads=0 / nr=0 / decimate=1 / interlaced=0 / bluray_compat=0 / constrained_intra=0 / bframes=6 / b_pyramid=2 / b_adapt=2 / b_bias=0 / direct=3 / weightb=1 / open_gop=0 / weightp=2 / keyint=250 / keyint_min=23 / scenecut=40 / intra_refresh=0 / rc=2pass / mbtree=0 / bitrate=12500 / ratetol=1.0 / qcomp=0.70 / qpmin=0 / qpmax=69 / qpstep=4 / cplxblur=20.0 / qblur=0.5 / ip_ratio=1.40 / pb_ratio=1.30 / aq=2:1.00
Language : English
Default : Yes
Forced : No

Audio #1
ID : 2
Format : AC-3
Format/Info : Audio Coding 3
Mode extension : CM (complete main)
Codec ID : A_AC3
Duration : 2h 23mn
Bit rate mode : Constant
Bit rate : 448 Kbps
Channel(s) : 6 channels
Channel positions : Front: L C R, Side: L R, LFE
Sampling rate : 48.0 KHz
Bit depth : 16 bits
Compression mode : Lossy
Stream size : 458 MiB (3%)
Language : Russian
Default : Yes
Forced : No

Audio #2
ID : 3
Format : DTS
Format/Info : Digital Theater Systems
Codec ID : A_DTS
Duration : 2h 23mn
Bit rate mode : Constant
Bit rate : 1 510 Kbps
Channel(s) : 6 channels
Channel positions : Front: L C R, Side: L R, LFE
Sampling rate : 48.0 KHz
Bit depth : 24 bits
Compression mode : Lossy
Stream size : 1.51 GiB (10%)
Language : English
Default : No
Forced : No

Menu
00:00:00.000 : en:00:00:00.000
00:11:16.967 : en:00:11:16.967
00:20:01.450 : en:00:20:01.450
00:30:09.474 : en:00:30:09.474
00:39:21.609 : en:00:39:21.609
00:48:57.643 : en:00:48:57.643
00:59:03.414 : en:00:59:03.414
01:08:57.883 : en:01:08:57.883
01:17:35.108 : en:01:17:35.108
01:28:36.185 : en:01:28:36.185
01:40:47.791 : en:01:40:47.791
01:50:55.857 : en:01:50:55.857
02:00:53.579 : en:02:00:53.579
02:10:13.555 : en:02:10:13.555
02:12:49.920 : en:02:12:49.920
pb.wtf



Скачать Человек из стали через торрент http://i1.imageban.ru/out/2013/10/18/e1747cd9177e2fb123b448fa3e8135a0.png Скачать фильм Человек из стали через торрент бесплантно в хорошем качестве Описание: Кларк Кент/Кал-Эл - молодой человек, который чувствует себя чужаком из-за своей невероятной силы. Много лет назад он был ... 9.8 10 76
Info! Золотая раздача, скачанное не засчитывается.
Торрент: Зарегистрирован [2013-11-28 10:22] · скачан: 1 115 раз
Статус: √ проверено
Размер: 14.44 GB
Как cкачать? Как скачать Человек из стали через торрент | qTorrent

% Раздел Тема Автор DL S | L
Фильмы [HD 720p, 1080p] (Хороший звук DUB, MVO) [ 13.22 GB ] Человек из стали / Man of Steel [2013 BDRip-HEVC 1080p ] DUB [] bober100 Скачать
1 | 0
Ultra HD (UHD: 2K, 4K, 8K) — видео сверхвысокой чёткости [ 82.77 GB ] Человек из стали / Man of Steel [2013 UHD BDRemux 2160p] DUB + 2xAVO sheker187 Скачать
1 | 0
Фильмы (Blu-ray, BD-Remux, HDDVD) [ 42.59 GB ] Человек из стали / Man of Steel [2013 BD Remux 1080p] 2xAVO+DUB [] bober100 Скачать
1 | 0
Ultra HD (UHD: 2K, 4K, 8K) — видео сверхвысокой чёткости [ 73.77 GB ] Человек из стали / Man of Steel [2013 UHD Blu-ray 2160p] - [] sheker187 Скачать
2 | 0
Фильмы [HD 720p, 1080p] (Хороший звук DUB, MVO) [ 8.78 GB ] Человек из стали / Man of Steel [2013 BDRip 1080p + Оригинал] slaventi-69 Скачать
1 | 0
Фильмы [HD 720p, 1080p] (Хороший звук DUB, MVO) [ 10.64 GB ] Человек из стали / Man of Steel [2013 BDRip 720p] Dub || NarutoSasuke Скачать
1 | 0
Порно фильмы с сюжетом [ 896 MB ] Человек Из Стали: Порно пародия / Man of Steel XXX: An Axel Braun Parody [2013 Big Budget Fantasy Feature Parody DVDRip Оригинал] SKAV Скачать
1 | 0


Последний раз редактировалось: лисяра (2013-10-18 19:53), всего редактировалось 3 раз(а)

28-11-2019 20:33  

Отключить всю рекламу на сайте

18-10-2013 20:07 Человек из стали Скачать торрент  

Первый!
Очень ждал спасибо!
И последний, пока устноеpb.wtf



19-10-2013 10:15 Человек из стали Скачать торрент  

когда в 3д будетpb.wtf



19-10-2013 18:22 Человек из стали Скачать торрент  

серьёзное кино! зря я в кинотеатр не пошёл(((pb.wtf



20-10-2013 05:51 Человек из стали Скачать торрент  

дайте скорость плзpb.wtf



28-11-2013 11:56 Человек из стали Скачать торрент  

Спасибо! winkpb.wtf



28-11-2013 18:39 Человек из стали Скачать торрент  

в описании надо писать
ремейк на супермена
думаю где я видел этот костюм
а на касетах когда появились видакиpb.wtf



    Дорогой пользователь! Огромная просьба, поблагодарите релизера, оцените раздачу и оставьте свои комментарий, если Вы скачали Человек из стали через торрент бесплатно! Внесите свою лепту в развитие PiratBit!
    Комментировать посты могут только пользователи прошедшие не сложную регистрацию
    Показать сообщения:    

    Человек из стали через торрент
    Скачать бесплатно Человек из стали
    Человек из стали скачать торрент
    Человек из стали смотреть онлайн
    Cкачать фильм Человек из стали бесплатно
    Человек из стали скачать торрент в хорошем качестве
    Человек из стали смотреть онлайн бесплатно в хорошем качестве


    Вы не можете начинать темы
    Вы не можете отвечать на сообщения
    Вы не можете редактировать свои сообщения
    Вы не можете удалять свои сообщения
    Вы не можете голосовать в опросах
    Вы не можете прикреплять файлы к сообщениям
    Вы можете скачивать файлы