Ссылка на приватное зеркало нашего сайта всего за 1$. Внимание количество ограничено!!!

2 сезон

iTunes

1 сезон

1

iTunes

iTunes

iTunes

1 сезон

RePack

30

ИГРА 18+

pack

ВАЖНО

!!Акция!!

Alien_RageХит недели

RePack

MK11
pack

Забери бонус

RePack

jed

!!Акция!!

Alien_Rage

RePack

fifa19

RePack

Assassins Creed: Odyssey

RePack

NEED FOR SPEED™ PAYBACK

4 сезон

9 сезон

Бесстыжие 9 сезон

Все сериалы

все сериалы на PB.wtf

RePack

FAR CRY 5
  

Продано за долги / 4Closed (Ник Лион) [2013 г., триллер, драма, WEB-DLRip, Любительский одноголосый (den904)] pb.wtf

Продано за долги через торрент pb.wtf

Размер: 1.46 GB | Добавлен: 6 лет 11 мес. назад | Торрент скачан:114 раз
Скачать  

28-11-2013 16:45 Продано за долги Скачать торрент  

Продано за долги / 4Closed
  • Год выпуска: 2013
  • Страна: США / Asylum, The, Squatters Rights
  • Жанр: триллер, драма,
  • Продолжительность: 01:30:53.
  • Перевод: Любительский одноголосый (den904)

  • Режиссер: Ник Лион



  • В ролях: Марли Мэтлин, Джеймс Дентон, Пол Сорвино, Джейми Кеннеди, Алекс Фринка, Кристина ДеРоса, Сара Флетчер, Мадонна Янг, Нэн МакНамара, Арнелл Пауэлл,

  • Описание: Когда молодая семья покупает себе новый дом на рынке вторичного жилья, то сразу же после новоселья старый владелец начинает терроризировать их… Он не остановится ни перед чем, чтобы вернуть свой дом обратно!

  • Качество: WEB-DLRip
  • Формат: AVI
  • Видео кодек: XviD
  • Аудио кодек: AC3
  • Видео: 720x400 (1.80:1), 23.976 fps, XviD build 50 ~2102 kbps avg, 0.30 bit/pixel
  • Аудио: 48 kHz, AC3 Dolby Digital, 2/0 (L,R) ch, ~192 kbps
    General
    Complete name : I:кино4Closed.2013.WEB-DRip.1460MB.avi
    Format : AVI
    Format/Info : Audio Video Interleave
    File size : 1.46 GiB
    Duration : 1h 30mn
    Overall bit rate : 2 304 Kbps
    Movie name : 4Closed.2013.WEB-DRip.1460MB.avi
    Director : by coc900
    Writing application : VirtualDubMod 1.5.10.3 | www.virtualdub-fr.org || (build 2550/release)

    Video
    ID : 0
    Format : MPEG-4 Visual
    Format profile : Advanced Simple@L5
    Format settings, BVOP : 2
    Format settings, QPel : No
    Format settings, GMC : No warppoints
    Format settings, Matrix : Default (H.263)
    Codec ID : XVID
    Codec ID/Hint : XviD
    Duration : 1h 30mn
    Bit rate : 2 103 Kbps
    Width : 720 pixels
    Height : 400 pixels
    Display aspect ratio : 16:9
    Frame rate : 23.976 fps
    Color space : YUV
    Chroma subsampling : 4:2:0
    Bit depth : 8 bits
    Scan type : Progressive
    Compression mode : Lossy
    Bits/(Pixel*Frame) : 0.304
    Stream size : 1.33 GiB (91%)
    Writing library : XviD 1.2.1 (UTC 2008-12-04)

    Audio
    ID : 1
    Format : AC-3
    Format/Info : Audio Coding 3
    Mode extension : CM (complete main)
    Format settings, Endianness : Big
    Codec ID : 2000
    Duration : 1h 30mn
    Bit rate mode : Constant
    Bit rate : 192 Kbps
    Channel(s) : 2 channels
    Channel positions : Front: L R
    Sampling rate : 48.0 KHz
    Bit depth : 16 bits
    Compression mode : Lossy
    Stream size : 125 MiB (8%)
    Alignment : Split accross interleaves
    Interleave, duration : 42 ms (1.00 video frame)
    Interleave, preload duration : 500 ms
    pb.wtf



  • Скачать Продано за долги через торрент http://pic.kartinco.top/images/6/cw71g.jpg Скачать фильм Продано за долги через торрент бесплантно в хорошем качестве Описание: Когда молодая семья покупает себе новый дом на рынке вторичного жилья, то сразу же после новоселья старый владелец начинает ... 10 10 6
    Info! Золотая раздача, скачанное не засчитывается.
    Торрент: Зарегистрирован [2013-11-28 16:45] · скачан: 114 раз
    Статус: T временная
    Размер: 1.46 GB
    Как cкачать? Как скачать Продано за долги через торрент | qTorrent



    Последний раз редактировалось: coc900 (2013-11-28 19:43), всего редактировалось 2 раз(а)

    28-11-2019 20:33  

    Отключить всю рекламу на сайте

    28-11-2013 19:03 Продано за долги Скачать торрент  

    coc900
    добавь данные MediaInfopb.wtf



      Дорогой пользователь! Огромная просьба, поблагодарите релизера, оцените раздачу и оставьте свои комментарий, если Вы скачали Продано за долги через торрент бесплатно! Внесите свою лепту в развитие PiratBit!
      Комментировать посты могут только пользователи прошедшие не сложную регистрацию
      Показать сообщения:    

      Продано за долги через торрент
      Скачать бесплатно Продано за долги
      Продано за долги скачать торрент
      Продано за долги смотреть онлайн
      Cкачать фильм Продано за долги бесплатно
      Продано за долги скачать торрент в хорошем качестве
      Продано за долги смотреть онлайн бесплатно в хорошем качестве


      Вы не можете начинать темы
      Вы не можете отвечать на сообщения
      Вы не можете редактировать свои сообщения
      Вы не можете удалять свои сообщения
      Вы не можете голосовать в опросах
      Вы не можете прикреплять файлы к сообщениям
      Вы можете скачивать файлы