1 сезон

3 сезон

iTunes

1

Line

MVO

iTunes

13

1 сезон

RePack

30

Deluxe

pack

Лицензия

ВАЖНО

ИГРА 18+

pack

RePack

MK11

RePack

jed

RePack

fifa19

RePack

RDR2

RePack

NEED FOR SPEED™ PAYBACK

4 сезон

9 сезон

Бесстыжие 9 сезон

Все сериалы

все сериалы на PB.wtf

RePack

FAR CRY 5

Anonymous, доброй ночи, мы катастрофически не успеваем собрать деньги на оплату серверов, помогите нам пожалуйста 5,10,15р., для нас важна любая помощь . В качестве благодарности мы отключим Вам всю рекламу на сайте (укажите свой ник в строку Ваше имя)!

×
  
Magnet ссылка

Джунгли / The Jungle (Эндрю Трауки / Andrew Traucki) [2013, триллер, DVD5] R5 pb.wtf

Джунгли через торрент pb.wtf

Размер: 3.99 GB | Добавлен: 7 лет 8 мес. назад | Торрент скачан:200 раз
Скачать  

28-11-2013 20:29 Джунгли Скачать торрент  


Джунгли / The Jungle
«Новый хищник выходит на охоту»
Страна: Австралия
Студия: Mysterious Light
Жанр: триллер
Год выпуска: 2013
Мировая премьера: 27 июня 2013
Российская премьера: 27 июня 2013
Украинская премьера: 27 июня 2013
Дата выхода DVD: 5 ноября 2013
Продолжительность: 01:21:14
Перевод: Профессиональный (двухголосный закадровый) [Лицензия]
Cубтитры: нет
Оригинальная аудиодорожка: нет
Режиссер: Эндрю Трауки / Andrew Traucki
В ролях: Игусти Будиантхика, Руперт Рейд, Мишель Сантос, Агос Виджайя Соджарво
Описание: Исследовательская экспедиция отправляется в индонезийские джунгли, чтобы снять на видео редкий вид пятнистых леопардов, занесенных в Красную книгу. Идя по их следам, путешественники забираются глубоко в джунгли, где еще никто не бывал. Там они встречают новый вид хищника, неизвестный до этого человечеству…
Бонусы: нет

Качество: DVD5 R5
Формат: DVD-Video
Видео кодек: MPEG2
Аудио кодек: AC3
Видео: PAL 16:9 (720x576(0.671)) MPEG Video, 25,000 кадр/сек, 6954 Кбит/сек
Аудио: Russian (Dolby AC3, 6 ch) 448 Кбит/сек, 48,0 КГц



Title: Dzhungli.2013.DVD5
Size: 3.99 Gb ( 4 187 846,00 KBytes ) - DVD-5
Enabled regions: 1, 2, 3, 4, 5, 6, 7, 8

VTS_01 :
Play Length: 00:00:19
Video: PAL 16:9 (720x576) VBR, Auto Pan&Scan, Auto Letterboxed
Audio:
Not specified (Dolby AC3, 2 ch)

VTS_02 :
Play Length: 01:21:14
Video: PAL 16:9 (720x576) VBR, Auto Pan&Scan, Auto Letterboxed
Audio:
Not specified (Dolby AC3, 6 ch)

* Menus Information *

VIDEO_TS Menu
Video:
PAL 16:9 (720x576) VBR
Auto Pan&Scan, Auto Letterboxed
Russian Language Unit :
Title Menu

VTS_01 Menu
Video:
PAL 16:9 (720x576) VBR
Auto Pan&Scan, Auto Letterboxed
Audio:
Not specified (Dolby AC3, 6 ch)
Russian Language Unit :
Root Menu

VTS_02 Menu
Video:
PAL 4:3 (720x576) VBR
Russian Language Unit :
Root Menu
Общее
Полное имя : F:Новинки 2013Dzhungli.2013.DVD5VIDEO_TSVTS_02_1.VOB
Формат : MPEG-PS
Размер файла : 1024 Мбайт
Продолжительность : 18 м.
Режим общего битрейта : Переменный
Общий поток : 7552 Кбит/сек

Видео
Идентификатор : 224 (0xE0)
Формат : MPEG Video
Версия формата : Version 2
Профиль формата : Main@Main
Параметр BVOP формата : Да
Параметр матрицы формата : Выборочная
Параметр GOP формата : M=3, N=15
Продолжительность : 18 м.
Вид битрейта : Переменный
Битрейт : 6954 Кбит/сек
Максимальный битрейт : 9000 Кбит/сек
Ширина : 720 пикселей
Высота : 576 пикселей
Соотношение сторон : 16:9
Частота кадров : 25,000 кадров/сек
Стандарт вещания : PAL
Цветовое пространство : YUV
Субдискретизация насыщенности : 4:2:0
Битовая глубина : 8 бит
Тип развёртки : Чересстрочная
Порядок развёртки : Верхнее поле первое
Метод сжатия : С потерями
Бит/(Пиксели*Кадры) : 0.671
Временной код первого кадра : 00:00:00:00
Оригинал временного кода : Group of pictures header
Размер потока : 943 Мбайт (92%)

Аудио
Идентификатор : 189 (0xBD)-128 (0x80)
Формат : AC-3
Формат/Информация : Audio Coding 3
Расширение режима : CM (complete main)
Параметр Endianness формата : Big
Режим смешивания : DVD-Video
Продолжительность : 18 м.
Вид битрейта : Постоянный
Битрейт : 448 Кбит/сек
Каналы : 6 каналов
Расположение каналов : Front: L C R, Side: L R, LFE
Частота : 48,0 КГц
Битовая глубина : 16 бит
Метод сжатия : С потерями
Размер потока : 60,7 Мбайт (6%)










pb.wtf



Скачать Джунгли через торрент http://i57.fastpic.ru/big/2013/1128/6b/891c28365716f28da32ff7b069ae946b.jpg Скачать фильм Джунгли через торрент бесплантно в хорошем качестве Описание: Исследовательская экспедиция отправляется в индонезийские джунгли, чтобы снять на видео редкий вид пятнистых леопардов, ... 9.7 10 12
Info! Золотая раздача, скачанное не засчитывается.
Торрент: Зарегистрирован [2013-11-28 20:29] · скачан: 200 раз
Статус: √ проверено
Размер: 3.99 GB
Как cкачать? Как скачать Джунгли через торрент | UTorrent

% Раздел Тема Автор DL S | L
Фильмы (HD 720p, 1080p) (48-60 fps) [ 3.93 GB ] Джуманджи: Зов джунглей / Jumanji: Welcome to the Jungle [2017 BDRip 720p / 60 FPS ] от R.G. HD-Films slaventi-69 Скачать
1 | 0
R.G. Resident & PiratVoice - Фильмы, Видео [ 1.42 GB ] Книга джунглей / The Jungle Book [2016 BDRip-AVC ] White Smoke Скачать
3 | 0
R.G. Resident & PiratVoice - Фильмы, Видео [ 2.72 GB ] Книга джунглей / The Jungle Book [2016 BDRip-AVC ] schultz Скачать
1 | 0

28-11-2019 20:33  

Отключить всю рекламу на сайте

    Дорогой пользователь! Огромная просьба, поблагодарите релизера, оцените раздачу и оставьте свои комментарий, если Вы скачали Джунгли через торрент бесплатно! Внесите свою лепту в развитие PiratBit!
    Комментировать посты могут только пользователи прошедшие не сложную регистрацию
    Показать сообщения:    

    Джунгли через торрент
    Скачать бесплатно Джунгли
    Джунгли скачать торрент
    Джунгли смотреть онлайн
    Cкачать фильм Джунгли бесплатно
    Джунгли скачать торрент в хорошем качестве
    Джунгли смотреть онлайн бесплатно в хорошем качестве


    Вы не можете начинать темы
    Вы не можете отвечать на сообщения
    Вы не можете редактировать свои сообщения
    Вы не можете удалять свои сообщения
    Вы не можете голосовать в опросах
    Вы не можете прикреплять файлы к сообщениям
    Вы можете скачивать файлы