Ссылка на приватное зеркало нашего сайта всего за 1$. Внимание количество ограничено!!!

2 сезон

iTunes

1 сезон

1

2 сезон

2 сезон

iTunes

1 сезон

RePack

30

Ultimate

ВАЖНО

ИГРА 18+

pack

RePack

MK11
pack

Забери бонус

RePack

jed

!!Акция!!

Alien_Rage

RePack

fifa19

RePack

Assassins Creed: Odyssey

RePack

NEED FOR SPEED™ PAYBACK

4 сезон

9 сезон

Бесстыжие 9 сезон

Все сериалы

все сериалы на PB.wtf

RePack

FAR CRY 5
  

Золушка '80 / Cinderella '80 / Серии: 1-4 (4) (Рикардо Маленотти) [1984 г., комедия, мелодрама, музыкальный фильм, DVDRip] MVO СВ-кадр pb.wtf

Золушка '80 через торрент pb.wtf

Размер: 3.24 GB | Добавлен: 7 лет назад | Торрент скачан:12 раз
Скачать  

29-11-2013 09:59 Золушка '80 Скачать торрент  

Золушка '80 / Cinderella '80
Год выпуска: 1984
Страна: Италия, Франция Television Center (Radiotelevisione Italiana (RAI), Stand Art)
Жанр: комедия, мелодрама, музыкальный фильм,
Продолжительность: 00:51:40 + 00:53:30 + 00:56:04 + 01:02:14
Перевод: Профессиональный многоголосый СВ-кадр

Режиссер: Рикардо Маленотти
Продюссер: Марио Котон, Рикардо Маленотти
Сценарий: Рикардо Маленотти, Оттавио Алесси, Уго Либераторе

Премьера в мире: 16 февраля 1984



В ролях: Бонни Бьянко, Пьер Коссо, Сандра Мило, Адольфо Чели, Витторио Каприоли, Кендал Кэлдуэлл, Сильва Кошина, Эди Анжелилло, Сабина Сегатори, Леони Форлити, Франко Карачиоло, Кара Донати, Роберт Гиули, Жан Рене Лемуан, Паоло Барони, Франко Ангрисано, Кристиан Фремон, Симона Иццо, Сьюзэн Мюллер,

Описание: В этой музыкальной версии вечной истории Золушки, поставленной совместно итальянскими и французскими кинематографистами специально для молодежной аудитории, красотка Синди живет вместе с отцом, мачехой и двумя сводными сестрами в американском городе Бруклин. Изводящая бесконечными придирками падчерицу, мачеха едет с дочками в Рим, чтобы пристроить их в музыкальный колледж. Против своего желания она вынуждена взять в Италию и Синди, потому что на этом настаивает единственный раз проявивший характер ее отец. Вскоре после прибытия девушка знакомится с симпатичным молодым итальянцем Мицио, который одеждой походит на оборванца. Его внешний вид отталкивает родственников Синди, которые настаивают на том, чтобы она порвала с ним отношения.Вместо этого девушка уходит жить в его студию, расположенную в парке. Фанат музыки Мицио руководит поп-группой, играющей на местных дискотеках. Незаурядные вокальные данные позволяют Синди вскоре стать лидером коллектива и завладеть сердцем юноши. К концу фильма на вечеринке в роскошном дворце так называемая золушка случайно узнает, что на самом деле Мицио - принц, очень богатый человек, сын лорда, владельца этого замка, а все это время искусно ее обманывал. Оскорбленная, она бросает в него свою туфельку и уезжает в аэропорт с твердым намерением уехать, где ее и находит сказочный принц.Итальянская версия Золушки. Очаровательная гордая неординарная ("...она бомба и с закрытым ртом...") амбициозная Золушка, и поет она, и танцует; богатый принц с неотразимым гуттаперчивым взглядом; злая мачеха и ее туповатые дочери; добрый отец, колеблющийся вместе с линией партии; фея-гадалка с нескрываемым бюстом и пр. пр. Смотрится на одном дыхании, музыка и песни запоминаются на всю жизнь, становишься добрее на 50%, да и ностальгия по 80-ым дает о себе знать. Как говорится, "добро побеждает зло, чистосердечие лучше хитрости, счастье надо искать, а всего сильнее - любовь".

Качество: DVDRip
Формат: AVI
Видео кодек: XviD
Аудио кодек: MP3
Видео: XviD, ~ 1950 Кбит/с, 672x432, 25.00fps
Аудио: MPEG Audio Layer 3, 44100Hz stereo, 127kbps
Релиз от: CergMark





General
Complete name : F:�4 07 2013Золушка '80Золушка '80 (1 серия).avi
Format : AVI
Format/Info : Audio Video Interleave
File size : 772 MiB
Duration : 51mn 40s
Overall bit rate : 2 090 Kbps
Writing application : VirtualDubMod 1.5.10.1 (build 2366/release)
Writing library : VirtualDubMod build 2366/release

Video
ID : 0
Format : MPEG-4 Visual
Format profile : Simple@L1
Format settings, BVOP : No
Format settings, QPel : No
Format settings, GMC : No warppoints
Format settings, Matrix : Default (H.263)
Codec ID : XVID
Codec ID/Hint : XviD
Duration : 51mn 40s
Bit rate : 1 952 Kbps
Width : 672 pixels
Height : 432 pixels
Display aspect ratio : 1.556
Frame rate : 25.000 fps
Color space : YUV
Chroma subsampling : 4:2:0
Bit depth : 8 bits
Scan type : Progressive
Compression mode : Lossy
Bits/(Pixel*Frame) : 0.269
Stream size : 722 MiB (93%)
Writing library : Lavc52.84.0

Audio
ID : 1
Format : MPEG Audio
Format version : Version 1
Format profile : Layer 3
Mode : Joint stereo
Mode extension : MS Stereo
Codec ID : 55
Codec ID/Hint : MP3
Duration : 51mn 40s
Bit rate mode : Constant
Bit rate : 128 Kbps
Channel(s) : 2 channels
Sampling rate : 44.1 KHz
Compression mode : Lossy
Stream size : 47.2 MiB (6%)
Alignment : Aligned on interleaves
Interleave, duration : 40 ms (1.00 video frame)
Interleave, preload duration : 522 ms

pb.wtf



Скачать Золушка '80 через торрент http://pic.kartinco.top/images/6/q3udn.jpg Скачать фильм Золушка через торрент бесплантно в хорошем качестве Описание: В этой музыкальной версии вечной истории Золушки, поставленной совместно итальянскими и французскими кинематографистами ... 9.3 10 3
Info! Золотая раздача, скачанное не засчитывается.
Торрент: Зарегистрирован [2013-11-29 09:59] · скачан: 12 раз
Статус: √ проверено
Размер: 3.24 GB
Как cкачать? Как скачать Золушка '80 через торрент | qTorrent



Последний раз редактировалось: lug30 (2013-11-29 10:45), всего редактировалось 1 раз

28-11-2019 20:33  

Отключить всю рекламу на сайте

29-11-2013 10:26 Золушка '80 Скачать торрент  

Замените постер на аналогичный без ссылки.

Напишите чей перевод.

Об исправлении напишите в лс.pb.wtf



    Дорогой пользователь! Огромная просьба, поблагодарите релизера, оцените раздачу и оставьте свои комментарий, если Вы скачали Золушка '80 через торрент бесплатно! Внесите свою лепту в развитие PiratBit!
    Комментировать посты могут только пользователи прошедшие не сложную регистрацию
    Показать сообщения:    

    Золушка '80 через торрент
    Скачать бесплатно Золушка '80
    Золушка '80 скачать торрент
    Золушка '80 смотреть онлайн
    Cкачать фильм Золушка '80 бесплатно
    Золушка '80 скачать торрент в хорошем качестве
    Золушка '80 смотреть онлайн бесплатно в хорошем качестве


    Вы не можете начинать темы
    Вы не можете отвечать на сообщения
    Вы не можете редактировать свои сообщения
    Вы не можете удалять свои сообщения
    Вы не можете голосовать в опросах
    Вы не можете прикреплять файлы к сообщениям
    Вы можете скачивать файлы