1 сезон

1 сезон

iTunes

1

КиноПоиск HD

Кинопоиск HD

iTunes

13

1 сезон

RePack

30

Новинка

ВАЖНО

ИГРА 18+

pack

RePack

MK11
pack

Легкие деньги

RePack

jed

RePack

fifa19

RePack

RDR2

RePack

NEED FOR SPEED™ PAYBACK

4 сезон

9 сезон

Бесстыжие 9 сезон

Все сериалы

все сериалы на PB.wtf

RePack

FAR CRY 5
  
Magnet ссылка

Глубина / Below (Дэвид Туи) [2002 г., ужасы, триллер, детектив, HDRip-AVC, Дубляж, Лицензия] pb.wtf

Глубина через торрент pb.wtf

Размер: 1.98 GB | Добавлен: 7 лет 4 мес. назад | Торрент скачан:403 раза
Скачать  

29-11-2013 15:23 Глубина Скачать торрент  


Глубина / Below
Год выпуска: 2002
Страна: США
Жанр: ужасы, триллер, детектив,
Продолжительность: 01:45:20
Перевод: Дубляж, Лицензия
Субтитры: Русские

Режиссер: Дэвид Туи
Продюссер: Даррен Аронофски, Сью Баден-Поуелл, Эрик Уотсон
Сценарий: Лукас Сассмен, Даррен Аронофски, Дэвид Туи

Премьера в мире: 11 октября 2002



В ролях: Мэттью Дэвис, Брюс Гринвуд, Оливия Уильямс, Холт МакКэллани, Скотт Фоули, Зак Галифианакис, Джейсон Флеминг, Декстер Флетчер, Ник Чинланд, Эндрю Ховард,

Описание: Разгар Второй мировой войны. Американская подводная лодка «Манта», посланная на выручку оставшимся в живых членам экипажа британского плавучего госпиталя, вынуждена скрываться на глубине от шныряющих ближе к поверхности немецких субмарин.
Уходя ближе ко дну, подводники обнаруживают, что там, внизу, есть еще что-то — явно не нацистские судна, нечто необъяснимое и, возможно, сверхъестественное.

Качество: HDRip-AVC
Формат: MKV
Видео кодек: H.264
Аудио кодек: AC3
Видео: 1024x576/16:9/23.976 fps/2251 Kbps/0.159 Bits/(Pixel*Frame)
Аудио: 48 kHz, AC3 Dolby Digital, 3/2 (L,C,R,l,r) + LFE ch, ~ 448 kbps avg

Автор рипа: Dean24

скриншот  скриншот  скриншот  скриншот  

Общее:
Уникальный идентификатор: 230920152687057478207739176465763086456 (0xADB99A8AEB76E269A559638FC5BF3078)
Полное имя: D:Для сайтаRip'sBelow_HDRip-AVC.mkv
Формат: Matroska
Версия формата: Version 4 / Version 2
Размер файла: 1,98 Гбайт
Продолжительность: 1 ч. 45 м.
Общий поток: 2698 Кбит/сек
Название фильма: ~V~
Дата кодирования: UTC 2013-11-29 12:32:55
Программа кодирования: mkvmerge v6.5.0 ('Isn't she lovely') built on Oct 20 2013 12:50:05
Библиотека кодирования: libebml v1.3.0 + libmatroska v1.4.1

Видео:
Идентификатор: 1
Формат: AVC
Формат/Информация: Advanced Video Codec
Профиль формата: High@L4.1
Параметр CABAC формата: Да
Параметр ReFrames формата: 15 кадров
Идентификатор кодека: V_MPEG4/ISO/AVC
Продолжительность: 1 ч. 45 м.
Битрейт: 2251 Кбит/сек
Ширина: 1024 пикселя
Высота: 576 пикселей
Соотношение сторон: 16:9
Режим частоты кадров: Постоянный
Частота кадров: 23,976 кадра/сек
Цветовое пространство: YUV
Субдискретизация насыщенности: 4:2:0
Битовая глубина: 8 бит
Тип развёртки: Прогрессивная
Бит/(Пиксели*Кадры): 0.159
Размер потока: 1,62 Гбайт (81%)
Библиотека кодирования: x264 core 119 r2106 07efeb4
Настройки программы: cabac=1 / ref=15 / deblock=1:-2:-1 / analyse=0x3:0x133 / me=umh / subme=10 / psy=1 / psy_rd=1.00:0.10 / mixed_ref=1 / me_range=32 / chroma_me=1 / trellis=2 / 8x8dct=1 / cqm=0 / deadzone=21,11 / fast_pskip=0 / chroma_qp_offset=-3 / threads=3 / sliced_threads=0 / nr=0 / decimate=1 / interlaced=0 / bluray_compat=0 / constrained_intra=0 / bframes=9 / b_pyramid=2 / b_adapt=2 / b_bias=0 / direct=3 / weightb=1 / open_gop=0 / weightp=2 / keyint=240 / keyint_min=23 / scenecut=40 / intra_refresh=0 / rc_lookahead=60 / rc=2pass / mbtree=1 / bitrate=2251 / ratetol=1.0 / qcomp=0.60 / qpmin=0 / qpmax=69 / qpstep=4 / cplxblur=20.0 / qblur=0.5 / ip_ratio=1.40 / aq=1:1.00
Default: Да
Forced: Нет

Аудио:
Идентификатор: 2
Формат: AC-3
Формат/Информация: Audio Coding 3
Расширение режима: CM (complete main)
Параметр Endianness формата: Big
Идентификатор кодека: A_AC3
Продолжительность: 1 ч. 45 м.
Вид битрейта: Постоянный
Битрейт: 448 Кбит/сек
Каналы: 6 каналов
Расположение каналов: Front: L C R, Side: L R, LFE
Частота: 48,0 КГц
Битовая глубина: 16 бит
Метод сжатия: С потерями
Размер потока: 338 Мбайт (17%)
Default: Да
Forced: Нет

Текст:
Идентификатор: 3
Формат: UTF-8
Идентификатор кодека: S_TEXT/UTF8
Идентификатор кодека/Информация: UTF-8 Plain Text
Язык: Russian
Default: Нет
Forced: Нет

pb.wtf



Скачать Глубина через торрент https://pic.kartinco.top/images/6/5aexq.jpg Скачать фильм Глубина через торрент бесплантно в хорошем качестве Описание: Разгар Второй мировой войны. Американская подводная лодка «Манта», посланная на выручку оставшимся в живых членам экипажа ... 9.4 10 10
Info! Золотая раздача, скачанное не засчитывается.
Торрент: Зарегистрирован [2013-11-29 15:23] · скачан: 403 раз
Статус: √ проверено
Размер: 1.98 GB
Как cкачать? Как скачать Глубина через торрент | UTorrent

% Раздел Тема Автор DL S | L
Фильмы 2017 [DVDrip, WEB-DLRip, HDrip] (DUB, MVO) [ 1.46 GB ] На глубине 6 футов / 6 Below: Miracle on the Mountain [2017 биография BDRip] - [] Twi7ter Скачать
1 | 0
Фильмы (WEB-DL 720p, 1080p) [ 3.63 GB ] На глубине 6 футов / 6 Below: Miracle on the Mountain [2017 биография WEB-DL 1080p] bober100 Скачать
1 | 0
Фильмы (BDRip, HDrip-AVC) (48-60 fps) [ 3.74 GB ] Глубина / Below [2002 BDRip-AVC 60fps ] от R.G. HD-Films Tiberiumsun69 Скачать
1 | 0
Фильмы [HD 720p, 1080p] (Хороший звук DUB, MVO) [ 14.27 GB ] Глубина / Below [2002 BDRip 1080p] Dub + MVO + DVO + Sub Rus + Original Eng Ворон Скачать
1 | 0
Нетрадиционное порно [ 766 MB ] Королева глубины двух дырок против Дилдо / Maria Bella Hally - The Depth Queen Vs. The Rosebud Sensation [EverythingButt / Kink] [2013 Anal Dildo Anal Fisting Strap-on Domination Hardcore. DVDRip Оригинал] Pir@tya2010 Скачать
1 | 0
Фильмы 2001-2005 [ 747 MB ] Глубина / Below [2002 HDRip-AVC] Dub sokol_ok Скачать
2 | 0
Фильмы 2001-2005 [ 1.45 GB ] Глубина / Below [2002 HDRip-AVC] Dub sokol_ok Скачать
2 | 0

28-11-2019 20:33  

Отключить всю рекламу на сайте

29-11-2013 15:45 Глубина Скачать торрент  

Классный фильм был в свое время))) yes yes yespb.wtf



    Дорогой пользователь! Огромная просьба, поблагодарите релизера, оцените раздачу и оставьте свои комментарий, если Вы скачали Глубина через торрент бесплатно! Внесите свою лепту в развитие PiratBit!
    Комментировать посты могут только пользователи прошедшие не сложную регистрацию
    Показать сообщения:    

    Глубина через торрент
    Скачать бесплатно Глубина
    Глубина скачать торрент
    Глубина смотреть онлайн
    Cкачать фильм Глубина бесплатно
    Глубина скачать торрент в хорошем качестве
    Глубина смотреть онлайн бесплатно в хорошем качестве


    Вы не можете начинать темы
    Вы не можете отвечать на сообщения
    Вы не можете редактировать свои сообщения
    Вы не можете удалять свои сообщения
    Вы не можете голосовать в опросах
    Вы не можете прикреплять файлы к сообщениям
    Вы можете скачивать файлы