2 сезон

iTunes

MVO

1

2 сезон

iTunes

iTunes

1 сезон

RePack

30

Новинка

ВАЖНО

ИГРА 18+

pack

RePack

MK11
pack

Легкие деньги

RePack

jed

RePack

fifa19

RePack

RDR2

RePack

NEED FOR SPEED™ PAYBACK

4 сезон

9 сезон

Бесстыжие 9 сезон

Все сериалы

все сериалы на PB.wtf

RePack

FAR CRY 5

Anonymous, добрый вечер, мы не успеваем собрать деньги на оплату серверов за декабрь и январь, помогите нам пожалуйста в это трудное время. В качестве благодарности мы отключим Вам всю рекламу на сайте (укажите свой ник в строку Ваше имя)!

×
  
Magnet ссылка

Приливы / The Hot Flashes (Сьюзэн Сейдельман) [2013 г., комедия, WEB-DLRip, Профессиональный двухголосный] pb.wtf

Приливы через торрент pb.wtf

Размер: 1.46 GB | Добавлен: 7 лет 1 мес. назад | Торрент скачан:363 раза
Скачать  

30-11-2013 06:32 Приливы Скачать торрент  

Приливы / The Hot Flashes
Год выпуска: 2013
Страна: США / Vertical Entertainment, The Hot Flashes LLC
Жанр: комедия,
Продолжительность: 01:39:34
Перевод: Профессиональный двухголосный (студия Elrom)

Режиссер: Сьюзэн Сейдельман



В ролях: Брук Шилдс, Дэрил Ханна, Шарлотт Грэхэм, Карл Палмер, Ванда Сайкес, Эрик Робертс, Джессика Ротэ, Андреа Франкл,

Описание: Пять «бабушек» бальзаковского возраста собрались в команду и решили обыграть местных баскетбольных чемпионов. Все они когда-то в школе и колледже кидали мяч в кольцо и сейчас они решили бросить вызов команде не знающей поражений. Денежный приз они собираются пожертвовать на борьбу с раком груди.

Качество: WEB-DLRip
Формат: AVI
Видео кодек: XviD
Аудио кодек: AC3
Видео: 720x384 (1.88:1), 23.976 fps, XviD build 50 ~1902 kbps avg, 0.29 bit/pixel
Аудио: 48 kHz, AC3 Dolby Digital, 2/0 (L,R) ch, ~192 kbps


General
Complete name : I:киноThe.Hot.Flashes.2013.WEB-DLRip.1460MB..avi
Format : AVI
Format/Info : Audio Video Interleave
File size : 1.46 GiB
Duration : 1h 39mn
Overall bit rate : 2 104 Kbps
Movie name : The.Hot.Flashes.2013.WEB-DLRip.1460MB.avi
Director : by coc900
Writing application : VirtualDubMod 1.5.10.3 | www.virtualdub-fr.org || (build 2550/release)

Video
ID : 0
Format : MPEG-4 Visual
Format profile : Advanced Simple@L5
Format settings, BVOP : 2
Format settings, QPel : No
Format settings, GMC : No warppoints
Format settings, Matrix : Default (H.263)
Codec ID : XVID
Codec ID/Hint : XviD
Duration : 1h 39mn
Bit rate : 1 903 Kbps
Width : 720 pixels
Height : 384 pixels
Display aspect ratio : 1.85:1
Frame rate : 23.976 fps
Color space : YUV
Chroma subsampling : 4:2:0
Bit depth : 8 bits
Scan type : Progressive
Compression mode : Lossy
Bits/(Pixel*Frame) : 0.287
Stream size : 1.32 GiB (90%)
Writing library : XviD 1.2.1 (UTC 2008-12-04)

Audio
ID : 1
Format : AC-3
Format/Info : Audio Coding 3
Mode extension : CM (complete main)
Format settings, Endianness : Big
Codec ID : 2000
Duration : 1h 39mn
Bit rate mode : Constant
Bit rate : 192 Kbps
Channel(s) : 2 channels
Channel positions : Front: L R
Sampling rate : 48.0 KHz
Bit depth : 16 bits
Compression mode : Lossy
Stream size : 137 MiB (9%)
Alignment : Split accross interleaves
Interleave, duration : 42 ms (1.00 video frame)
Interleave, preload duration : 500 ms

pb.wtf



Скачать Приливы через торрент http://pic.kartinco.top/images/6/azbna.jpg Скачать фильм Приливы через торрент бесплантно в хорошем качестве Описание: Пять «бабушек» бальзаковского возраста собрались в команду и решили обыграть местных баскетбольных чемпионов. Все они когда-то в ... 8.6 10 14
Info! Золотая раздача, скачанное не засчитывается.
Торрент: Зарегистрирован [2013-11-30 06:32] · скачан: 363 раз
Статус: √ проверено
Размер: 1.46 GB
Как cкачать? Как скачать Приливы через торрент | UTorrent

% Раздел Тема Автор DL S | L
Фильмы (WEB-DL 720p, 1080p) [ 3.23 GB ] Приливы / The Hot Flashes [2013 WEB-DL 720p двухголосый] кэп Скачать
1 | 0

28-11-2019 20:33  

Отключить всю рекламу на сайте

30-11-2013 08:38 Приливы Скачать торрент  

Не фига себе бальзаковского возраста...да их ещё жарить и жарить !!!pb.wtf



30-11-2013 18:56 Приливы Скачать торрент  

FatumNNM писал(а):

Не фига себе бальзаковского возраста...да их ещё жарить и жарить !!!

Особенно тетку на 5 и 6 скрине :rofle:pb.wtf



02-12-2013 10:57 Приливы Скачать торрент  

Соломон Немни писал(а):

FatumNNM писал(а):

фига себе бальзаковского возраста...да их ещё жарить и жарить !!!

I/O писал(а):

Особенно тетку на 5 и 6 скрине


такую можно без маргарина :rofle:pb.wtf



16-12-2013 20:46 Приливы Скачать торрент  

ппц в Америке люди уже совсем обезумели, я начинаю уважать русский кинематограф)))pb.wtf



    Дорогой пользователь! Огромная просьба, поблагодарите релизера, оцените раздачу и оставьте свои комментарий, если Вы скачали Приливы через торрент бесплатно! Внесите свою лепту в развитие PiratBit!
    Комментировать посты могут только пользователи прошедшие не сложную регистрацию
    Показать сообщения:    

    Приливы через торрент
    Скачать бесплатно Приливы
    Приливы скачать торрент
    Приливы смотреть онлайн
    Cкачать фильм Приливы бесплатно
    Приливы скачать торрент в хорошем качестве
    Приливы смотреть онлайн бесплатно в хорошем качестве


    Вы не можете начинать темы
    Вы не можете отвечать на сообщения
    Вы не можете редактировать свои сообщения
    Вы не можете удалять свои сообщения
    Вы не можете голосовать в опросах
    Вы не можете прикреплять файлы к сообщениям
    Вы можете скачивать файлы